Tags
Language
Tags

Steve Fidyk - Allied Forces (2016) [Official Digital Download 24/88]

Posted By: Pisulik
Steve Fidyk - Allied Forces (2016) [Official Digital Download 24/88]

Steve Fidyk - Allied Forces (2016)
FLAC (tracks) 24-bit/88.2 kHz | Time - 51:37 minutes | 923 MB
Studio Master, Official Digital Download | Artwork: Front cover

The military reference in this record's title is right on the mark. For over a quarter of a century, Steve Fidyk has held down the drum chair in the U.S. Army Blues (part of the United States Army Band "Pershing's Own"), an 18-piece ensemble that has performed America's original art form in a variety of venues throughout the U.S. and around the world. Like any great jazz trapster, Fidyk plays the role of commander in chief which is not to say that Allied Forces is a drum centric record. And speaking of commanders, check out the aphorism by General George S. Patton printed inside of the disc's booklet, amid the backdrop of marching American troops.

Fidyk excels at putting various components of the drum set in places that challenge his bandmates to dig deeper and thrive on their own terms. A keen sense of dynamics and good taste coexists with a penchant for assertively directing the action. He's equally good at generating hard, no nonsense swing in full flight, Fidyk often reminds me of Louis Hayes by executing pointed accents around the set ("Gaffe"); creating a dense cloud of sound via the crashing of large cymbals ("Food Court Drifter"); contributing to a head by gradually and ingeniously adding rhythms without upsetting the applecart ("One For T.J."); and studiously laying down straightforward time with a stick on a partially opened hi-hat ("Good Turns"). During the course of "Gaffe," there's an impressive range of emphasis in Fidyk's comping amidst solos by alto saxophonist Joseph Henson, guitarist Shawn Purcell, and tenor saxophonist Doug Webb. The leader is constantly listening, reacting, and asserting himself without ever assuming a dominant posture.

In the case of Thelonious Monk's "Evidence" and Charlie Parker's "Moose The Mooche," Fidyk's drums impact the way we hear these classic jazz compositions. His snare and toms bob and weave around Monk's melody, creating a skittish counterline before the arrangement shifts to a swinging bridge in three-four time. Playfully irreverent, Fidyk's drumming adds another dimension to the fiendishly shifty tune. While Webb and Henson swing their way through the theme of "Moose," Fidyk punches his bass drum at key points and adds a smack to the snare, briefly initiating an insistent, funk-like vibe that rapidly evolves into a straight-ahead jazz mode. The foundation of "High Five" (one of Fidyk's six original compositions on the record), a densely-textured funk-infused line in five-four time, consists of a cymbal rhythm that sounds like a baby's rattle, pitted against the insistent thwack of the kick and snare.

Tracklist:

01. Evidence
02. Good Turns
03. Gaffe
04. Food Court Drifter
05. Doin' The Shake
06. Moose The Mooche
07. Portrait Of Tamela
08. High Five
09. In My Room
10. One For TJ
11. Shiny Stockings

Personnel:

Steve Fidyk - drums
Brian Charette - organ
Joseph Henson - alto sax
Shawn Purcell - guitar
Doug Webb - tenor sax

foobar2000 1.3.7 / Dynamic Range Meter 1.1.1
log date: 2018-08-07 14:45:20

––––––––––––––––––––––––––––––––––––––––
Analyzed: Steve Fidyk / Allied Forces
––––––––––––––––––––––––––––––––––––––––

DR Peak RMS Duration Track
––––––––––––––––––––––––––––––––––––––––
DR12 -0.98 dB -14.74 dB 4:49 01-Evidence
DR12 -0.98 dB -14.97 dB 3:29 02-Good Turns
DR11 -0.98 dB -13.89 dB 4:35 03-Gaffe
DR12 -0.98 dB -13.81 dB 5:19 04-Food Court Drifter
DR12 -0.98 dB -14.79 dB 3:31 05-Doin' The Shake
DR11 -0.98 dB -13.67 dB 4:02 06-Moose The Mooche
DR12 -0.98 dB -14.35 dB 6:00 07-Portrait Of Tamela
DR11 -0.98 dB -13.05 dB 6:19 08-High Five
DR12 -0.98 dB -13.97 dB 5:00 09-In My Room
DR13 -0.98 dB -15.75 dB 4:49 10-One For TJ
––––––––––––––––––––––––––––––––––––––––

Number of tracks: 10
Official DR value: DR12

Samplerate: 88200 Hz
Channels: 2
Bits per sample: 24
Bitrate: 2656 kbps
Codec: FLAC
================================================================================


All thanks go to the original releaser