Steve Jablonsky - Bloodshot (Original Motion Picture Score) (2020) [Official Digital Download]

Posted By: Pisulik
Steve Jablonsky - Bloodshot (Original Motion Picture Score) (2020) [Official Digital Download]

Steve Jablonsky - Bloodshot (Original Motion Picture Score) (2020)
FLAC (tracks) 24-bit/44.1 kHz | Time - 70:18 minutes | 699 MB
Studio Master, Official Digital Download | Artwork: Front cover

Original Motion Picture Score from the film Bloodshot (2020). The music was composed by Steve Jablonsky (Skyscraper, Transformers: The Last Knight, Teenage Mutant Ninja Turtles: Out of the Shadows, The Last Witch Hunter). Bloodshot is a 2020 action superhero film, based on the Valiant Comics superhero of the same name, the first film in the Valiant Cinematic Universe (VCU). The film written by Jeff Wadlow and Eric Heisserer, directed by Dave Wilson, stars Vin Diesel, Sam Heughan, Guy Pearce, Lamorne Morris, Eiza Gonzalez, Toby Kebbell.

Tracklist:

1 Mombasa Mission
2 Martin Axe
3 Wake Up
4 Second Chance
5 Training Montage
6 KT
7 The Tunnel
8 Harting
9 RST
10 Barris Mission
11 Wigans
12 Gina
13 London Chase
14 KT’s Plan
15 Shafted
16 Die Already
17 Bloodshot
18 Ray Garrison
19 Initiate Sequence

foobar2000 1.3.7 / Dynamic Range Meter 1.1.1
log date: 2020-02-17 04:30:20

––––––––––––––––––––––––––––––––––––––––
Analyzed: Steve Jablonsky / BLOODSHOT (Original Motion Picture Score)
––––––––––––––––––––––––––––––––––––––––

DR Peak RMS Duration Track
––––––––––––––––––––––––––––––––––––––––
DR8 -0.49 dB -13.30 dB 6:41 01-Mombasa Mission
DR8 -0.49 dB -11.99 dB 2:36 02-Martin Axe
DR12 -0.50 dB -17.97 dB 2:02 03-Wake Up
DR10 -0.50 dB -13.83 dB 2:37 04-Second Chance
DR6 -0.48 dB -11.09 dB 1:48 05-Training Montage
DR10 -0.96 dB -16.06 dB 3:11 06-KT
DR8 -0.49 dB -12.58 dB 5:36 07-The Tunnel
DR9 -0.37 dB -12.64 dB 3:46 08-Harting
DR8 -0.49 dB -13.66 dB 2:45 09-RST
DR7 -0.49 dB -10.34 dB 5:33 10-Barris Mission
DR8 -0.49 dB -13.12 dB 6:24 11-Wigans
DR9 -0.50 dB -15.04 dB 3:15 12-Gina
DR7 -0.49 dB -10.20 dB 2:23 13-London Chase
DR6 -0.47 dB -9.77 dB 8:20 14-KT's Plan
DR6 -0.46 dB -8.49 dB 2:25 15-Shafted
DR7 -0.47 dB -10.85 dB 1:42 16-Die Already
DR8 -0.33 dB -11.40 dB 3:23 17-Bloodshot
DR9 -0.50 dB -14.03 dB 4:18 18-Ray Garrison
DR7 -0.49 dB -8.99 dB 1:35 19-Initiate Sequence
––––––––––––––––––––––––––––––––––––––––

Number of tracks: 19
Official DR value: DR8

Samplerate: 44100 Hz
Channels: 2
Bits per sample: 24
Bitrate: 1523 kbps
Codec: FLAC
================================================================================


All thanks go to the original releaser