Tags
Language
Tags

Stick In The Wheel - Hold Fast (2020) [Official Digital Download 24/96]

Posted By: pyatak
Stick In The Wheel - Hold Fast (2020) [Official Digital Download 24/96]

Stick In The Wheel - Hold Fast (2020) [Official Digital Download 24/96]
FLAC (tracks) 24-bit/96 kHz | Front Cover | Time - 41:28 minutes | 809 MB
Folk | Label: From Here Records, Official Digital Download

Much of the acclaim for London-based English folk evolutionists Nicola Kearey (vocals) and Ian Carter (guitar/producer) has been down to their willingness to introduce a contemporary edge to the genre. The pair originally worked together in dubstep outfit Various, and elements of electronica enhanced their first two albums. However, whereas this mercurial tendency has previously been a strength, there’s the sense that they’ve overstretched on Hold Fast, the disparate strands failing to coalesce into any sort of cohesive whole.

An incongruous opener aside – A Tree Must Stand in the Earth fuses Saxon poetry with the mesmeric desert blues sprawl of Tinariwen – the first half of the album finds the duo at their most traditional-sounding: Budg & Snudg sets the reminiscences of a 17th-century burglar to a raucous backing; Villon Song is propelled by a relentless beat; Top Knot is all the better for being so simple.

But from then on, envelope-pushing trumps actual tunes. The synth loop of the gentle Possible Reasons for Eventual Admission to the Asylum somehow simultaneously evokes both Black Sabbath’s Planet Caravan and These New Puritans’ Organ Eternal, without making for as strong a song as either. Kearey’s treated vocals on Drive the Cold Winter Away, meanwhile, feel jarringly out of place. It is undeniably true that unless Lewis Capaldi goes rogue, Forward is likely to be the only song you’ll hear all year where lyrics taken from the Old English poem The Battle of Maldon will be rendered unintelligible by indiscriminate use of Auto-Tune. But that in itself doesn’t make it good.

TRACKLIST

1. Stick In The Wheel - A Tree Must Stand In The Earth
2. Stick In The Wheel - Budg & Snudg
3. Stick In The Wheel - Top Knot
4. Stick In The Wheel - Villon Song
5. Stick In The Wheel - Gold So Red
6. Stick In The Wheel - Fake Away
7. Stick In The Wheel - Soldier Soldier
8. Stick In The Wheel - Possible Reasons For Eventual Admission
9. Stick In The Wheel - Drive The Cold Winter Away
10. Stick In The Wheel - Nine Herbs Charm
11. Stick In The Wheel - Forward

foobar2000 1.3.16 / Dynamic Range Meter 1.1.1
log date: 2020-08-25 14:35:56

––––––––––––––––––––––––––––––––––––––––
Analyzed: Stick In The Wheel / Hold Fast
––––––––––––––––––––––––––––––––––––––––

DR Peak RMS Duration Track
––––––––––––––––––––––––––––––––––––––––
DR9 -0.20 dB -11.26 dB 5:45 01-A Tree Must Stand In The Earth
DR10 -1.76 dB -12.47 dB 2:39 02-Budg & Snudg
DR11 -3.80 dB -18.06 dB 2:06 03-Top Knot
DR10 -0.27 dB -11.57 dB 2:27 04-Villon Song
DR9 -0.66 dB -10.93 dB 2:24 05-Gold So Red
DR10 -0.20 dB -12.21 dB 4:36 06-Fake Away
DR9 -3.82 dB -15.40 dB 3:57 07-Soldier Soldier
DR11 -0.20 dB -12.56 dB 4:52 08-Possible Reasons For Eventual Admission
DR9 -0.20 dB -11.49 dB 4:15 09-Drive The Cold Winter Away
DR8 -0.55 dB -11.35 dB 3:44 10-Nine Herbs Charm
DR9 -0.82 dB -11.18 dB 4:44 11-Forward
––––––––––––––––––––––––––––––––––––––––

Number of tracks: 11
Official DR value: DR9

Samplerate: 96000 Hz
Channels: 2
Bits per sample: 24
Bitrate: 2819 kbps
Codec: FLAC
================================================================================



Thanks to the Original customer.