Tags
Language
Tags

Styx - The Same Stardust (2021)

Posted By: v3122
Styx - The Same Stardust (2021)

Styx - The Same Stardust (2021)
FLAC (Tracks) 24-bit/48 kHz | Official Digital Download | Time: 00:31:40
Classic Rock, Progressive Rock | LStyx 2020 PS | ~ 426 Mb

~ Single features 2 new songs and 5 live songs from the Styx Fix series. ~

Styx - The Same Stardust (2021):

Tracklist:

01. The Same Stardust (2:42)
02. Age Of Entropia (2:25)
03. Mr. Roboto (Live) (5:23)
04. Radio Silence (Live) (4:40)
05. Man In The Wilderness (Live) (6:00)
06. Miss America (Live) (5:10)
07. Renegade (Live) (5:20)

foobar2000 1.6.5 / Dynamic Range Meter 1.1.1

––––––––––––––––––––––––––––––––––––––––
Analyzed: Styx / The Same Stardust EP
––––––––––––––––––––––––––––––––––––––––

DR Peak RMS Duration Track
––––––––––––––––––––––––––––––––––––––––
DR7 -0.32 dB -9.11 dB 2:42 01-The Same Stardust
DR9 -0.20 dB -12.58 dB 2:25 02-Age Of Entropia
DR6 -0.35 dB -8.28 dB 5:23 03-Mr. Roboto (Live)
DR6 -0.35 dB -8.21 dB 4:40 04-Radio Silence (Live)
DR5 -0.35 dB -7.16 dB 6:00 05-Man In The Wilderness (Live)
DR5 -0.35 dB -7.55 dB 5:10 06-Miss America (Live)
DR5 -0.35 dB -7.08 dB 5:20 07-Renegade (Live)
––––––––––––––––––––––––––––––––––––––––

Number of tracks: 7
Official DR value: DR6

Samplerate: 48000 Hz
Channels: 2
Bits per sample: 24
Bitrate: 1804 kbps
Codec: FLAC

All thanks go to the original releaser

Styx in my Blog

Download Styx - The Same Stardust (2021):