Tags
Language
Tags
November 2022
Su Mo Tu We Th Fr Sa
30 31 1 2 3 4 5
6 7 8 9 10 11 12
13 14 15 16 17 18 19
20 21 22 23 24 25 26
27 28 29 30 1 2 3

Takashi Kokubo - Sound Scapes (Oto no Aru Fuukei) (2021)

Posted By: v3122
Takashi Kokubo - Sound Scapes (Oto no Aru Fuukei) (2021)

Takashi Kokubo - Sound Scapes (Oto no Aru Fuukei) (2021)
FLAC (Tracks) 24-bit/96 kHz | Official Digital Download | Time: 01:05:48
Ambient, New Age, Field Recording | IVC | ~ 1.22 Gb

Takashi Kokubo is a Japanese ambient musician. He produces healing music that gently resonates with people's hearts.
Along with the binaural microphone "CyberPhonic," the sound scenes of nature around the world are recorded, and the sounds are put to good use in the work.
Kokubo was nominated for the Grammy Award 2020 (Best Historical Album Category) in USA compilation album "Kankyo Ongaku".
Takashi Kokubo - Sound Scapes (Oto no Aru Fuukei) (2021):

Tracklist:

01. Spring Valley (9:20)
02. Plum and Sakura (8:47)
03. Fresh Green Walk (7:37)
04. Milky Way (8:37)
05. Pinaisara Falls (9:38)
06. Mountain Stream (7:42)
07. Aerial Autumn Leaves (6:32)
08. Autumn Valley (7:35)

foobar2000 1.6.11 / Dynamic Range Meter 1.1.1
log date: 2022-06-09 22:26:46

––––––––––––––––––––––––––––––––––––––––
Analyzed: Takashi Kokubo / Sound Scapes (Oto no Aru Fuukei)
––––––––––––––––––––––––––––––––––––––––

DR Peak RMS Duration Track
––––––––––––––––––––––––––––––––––––––––
DR11 -0.10 dB -17.24 dB 9:20 01-Spring Valley
DR11 -2.65 dB -16.59 dB 8:47 02-Plum and Sakura
DR11 -2.32 dB -17.75 dB 7:37 03-Fresh Green Walk
DR12 -1.99 dB -19.38 dB 8:37 04-Milky Way
DR12 -2.78 dB -19.00 dB 9:38 05-Pinaisara Falls
DR14 -1.85 dB -21.00 dB 7:42 06-Mountain Stream
DR10 -2.72 dB -16.91 dB 6:32 07-Aerial Autumn Leaves
DR11 -0.10 dB -15.95 dB 7:35 08-Autumn Valley
––––––––––––––––––––––––––––––––––––––––

Number of tracks: 8
Official DR value: DR11

Samplerate: 96000 Hz
Channels: 2
Bits per sample: 24
Bitrate: 2644 kbps
Codec: FLAC

All thanks go to the original releaser

Download Takashi Kokubo - Sound Scapes (Oto no Aru Fuukei) (2021):