Taylor Swift - Fearless (Taylor’s Version) The From The Vault Chapter (2021) [Official Digital Download 24/96]

Posted By: pyatak
Taylor Swift - Fearless (Taylor’s Version) The From The Vault Chapter (2021) [Official Digital Download 24/96]

Taylor Swift - Fearless (Taylor’s Version) The From The Vault Chapter (2021) [Official Digital Download 24/96]
FLAC (tracks) 24-bit/96 kHz | Front Cover | Time - 23:02 minutes | 468 MB
Pop, Country | Label: Taylor Swift, Official Digital Download

Fearless (Taylor's Version) is the first re-recorded album by American singer-songwriter Taylor Swift, released on April 9, 2021, through Republic Records. It is a re-recording of Swift's second studio album, Fearless (2008), and the first of six re-recorded albums Swift plans to release, following the dispute regarding ownership of the masters to her first six studio albums.

The album consists of re-recorded versions of all 19 tracks from the platinum edition of Fearless, Swift's 2010 soundtrack single "Today Was a Fairytale", and six additional "from the Vault" songs not included on Fearless. Recreating the instrumentation of the 2008 recording, the album was produced by Swift, Christopher Rowe, Jack Antonoff, and Aaron Dessner. Out of the 26 songs, 12 were written solely by Swift. Colbie Caillat, Maren Morris and Keith Urban contribute guest vocals.

Fearless (Taylor's Version) was preceded by three singles, all of which entered the top 10 of the Billboard Hot Country Songs chart: "Love Story (Taylor's Version)" topped the chart, "You All Over Me" landed at number six, followed by "Mr. Perfectly Fine" reaching number two. The album received critical acclaim, with emphasis on its nostalgic sentiment, Swift's matured vocals, and crisper production. It reached number one in Australia, Canada, Ireland, New Zealand, Scotland, the United Kingdom and the United States, becoming the first re-recorded album ever to top the Billboard 200 chart.

TRACKLIST

01. Taylor Swift - You All Over Me (Taylor’s Version) (From The Vault)
02. Taylor Swift - Mr. Perfectly Fine (Taylor’s Version) (From The Vault)
03. Taylor Swift - That’s When (Taylor’s Version) (From The Vault)
04. Taylor Swift - We Were Happy (Taylor’s Version) (From The Vault)
05. Taylor Swift - Don’t You (Taylor’s Version) (From The Vault)
06. Taylor Swift - Bye Bye Baby (Taylor’s Version) (From The Vault)

foobar2000 1.6.2 / Dynamic Range Meter 1.1.1
log date: 2021-06-01 07:13:24

––––––––––––––––––––––––––––––––––––––––
Analyzed: Taylor Swift / Fearless (Taylor’s Version): The From The Vault Chapter
––––––––––––––––––––––––––––––––––––––––

DR Peak RMS Duration Track
––––––––––––––––––––––––––––––––––––––––
DR6 -0.26 dB -8.10 dB 3:41 01-You All Over Me (Taylor’s Version) (From The Vault)
DR7 -0.20 dB -9.16 dB 4:38 02-Mr. Perfectly Fine (Taylor’s Version) (From The Vault)
DR6 -0.20 dB -8.90 dB 3:09 03-That’s When (Taylor’s Version) (From The Vault)
DR6 -0.31 dB -9.55 dB 4:04 04-We Were Happy (Taylor’s Version) (From The Vault)
DR8 -0.20 dB -10.10 dB 3:29 05-Don’t You (Taylor’s Version) (From The Vault)
DR7 -0.20 dB -9.34 dB 4:02 06-Bye Bye Baby (Taylor’s Version) (From The Vault)
––––––––––––––––––––––––––––––––––––––––

Number of tracks: 6
Official DR value: DR7

Samplerate: 96000 Hz
Channels: 2
Bits per sample: 24
Bitrate: 2911 kbps
Codec: FLAC
================================================================================



Thanks to the Original customer.