Tags
Language
Tags

The Stan Kenton Orchestra - Cuban Fire! (1956)

Posted By: v3122
The Stan Kenton Orchestra - Cuban Fire! (1956)

The Stan Kenton Orchestra - Cuban Fire! (1956)
FLAC (Tracks) 24-bit/44.1 kHz | Official Digital Download | Time: 00:54:00
2019 | Big Band Latin Jazz | Label: RevOla | ~ 594 Mb

Cuban Fire! is an album by Stan Kenton and his orchestra released in 1956 by Capitol Records. This was Stan Kenton's big band's first full-length recording of Afro-Cuban-styled music. The LP charted for four weeks in Billboard starting on September 15, 1956, peaking at #17. The concept of the original 1956 recording centers on the Cuban Fire! suite Kenton had commissioned from composer Johnny Richards. The 1991 CD re-issue is augmented with one extra track from the 1956 sessions and five cuts recorded four years later by the first of Kenton's mellophonium orchestras…

~ woki
The Stan Kenton Orchestra - Cuban Fire! (1956):

Tracklist:

01 - Fuego Cubano (Cuban Fire) 06:02
02 - El Congo Valiente (Valiant Congo) 05:53
03 - Recuerdos (Reminiscences) 05:01
04 - Quien Sabe (Who Knows) 04:49
05 - La Quera Baila (The Fair One Dances) 05:09
06 - La Suerte De Los Tontos (Fortune Of Fools) 04:20
07 - Tres Corazones (Three Hearts) 02:59
08 - Malibu Moonlight 03:51
09 - El Panzon 04:34
10 - Carnival 05:21
11 - Wagon 03:05
12 - Early Hours (Lady Luck) 02:56

foobar2000 1.4.3 / Dynamic Range Meter 1.1.1
log date: 2021-09-14 22:57:57

––––––––––––––––––––––––––––––––––––––––
Analyzed: Stan Kenton / Cuban Fire!
––––––––––––––––––––––––––––––––––––––––

DR Peak RMS Duration Track
––––––––––––––––––––––––––––––––––––––––
DR13 -3.23 dB -21.52 dB 6:03 01-Fuego Cubano (Cuban Fire) (Remastered)
DR13 -3.83 dB -20.46 dB 5:53 02-El Congo Valiente (Valiant Congo) (Remastered)
DR13 -3.73 dB -21.24 dB 5:02 03-Recuerdos (Reminiscences) (Remastered)
DR13 -3.74 dB -19.99 dB 4:50 04-Quien Sabe (Who Knows) (Remastered)
DR13 -5.19 dB -22.26 dB 5:10 05-La Quera Baila (The Fair One Dances) (Remastered)
DR13 -4.43 dB -20.57 dB 4:20 06-La Suerte De Los Tontos (Fortune Of Fools) (Remastered)
DR13 -4.13 dB -21.09 dB 2:59 07-Tres Corazones (Three Hearts) (Remastered)
DR13 -4.84 dB -23.47 dB 3:51 08-Malibu Moonlight (Remastered)
DR14 -3.26 dB -20.84 dB 4:34 09-El Panzon (Remastered)
DR15 -3.52 dB -22.20 dB 5:22 10-Carnival (Remastered)
DR14 -2.67 dB -20.96 dB 3:06 11-Wagon (Remastered)
DR15 -2.71 dB -21.85 dB 2:57 12-Early Hours (Lady Luck) (Remastered)
––––––––––––––––––––––––––––––––––––––––

Number of tracks: 12
Official DR value: DR14

Samplerate: 44100 Hz
Channels: 2
Bits per sample: 24
Bitrate: 1432 kbps
Codec: FLAC

All thanks go to the original releaser

Download The Stan Kenton Orchestra - Cuban Fire! (1956):