The 24-Carat Black - Ghetto: Misfortune's Wealth (1973/2018) [Official Digital Download 24/192]

Posted By: Pisulik
The 24-Carat Black - Ghetto: Misfortune's Wealth (1973/2018) [Official Digital Download 24/192]

The 24-Carat Black - Ghetto: Misfortune's Wealth (1973/2018)
FLAC (tracks) 24-bit/192 kHz | Time - 57:21 minutes | 2,13 GB
Studio Master, Official Digital Download | Artwork: Digital Booklet

A one-off concept album that’s a big fat Soul-R&B gem: Craft Recordings will reissue the definitive version of one of the most ambitious, groundbreaking records in the Stax catalog: The 24-Carat Black Ghetto: Misfortune’s Wealth. Composed, arranged, and produced almost entirely by longtime Isaac Hayes collaborator Dale Warren, the album draws marked comparisons to the lush, transformative arrangements penned by Warren for the seminal trio of Hayes albums, Hot Buttered Soul, The Isaac Hayes Movement, and …To Be Continued. Often cited as one of the first concept albums in the soul, funk and R&B genres at a time when such boldly artistic statements were reserved for progressive rock bands like Pink Floyd, this ‘soul opera,’ featuring just eight tracks, is an entrancing mixture of lush, orchestral soul ballads and Blaxploitation-era funk grooves, split into vignettes dealing with aspects of everyday life in some of America’s poorest areas. Its unique blend of immaculately arranged grooves and socially conscious narrative launched the album into cult-classic status among DJs and producers who have sampled it for tracks, most recently by Kendrick Lamar, Jay Z, Digable Planets, Dr. Dre, and many others.

More about The 24-Carat Black Ghetto: Misfortune's Wealth: Composed of Larry Austin (bass); Tyrone Steels (percussion); Jerome Derrickson (saxophone); Ricky Foster (trumpet); James Talbert (electric piano); William Talbert (organ); and Princess Hearn, Kathleen Dent, and Valerie Malone (vocals), The 24-Carat Black was helmed by Dale Warren who famously orchestrated the strings for Isaac Hayes' albums Hot Buttered Soul, The Isaac Hayes Movement and …To Be Continued. This reissue of their lone studio album for the Enterprise label follows a 2009 archival compilation from the Numero Group entitled Gone: The Promises of Yesterday (2009), which collects previously unreleased material from the group.

Tracklist:

01. Synopsis One: In The Ghetto / God Save The World
02. Poverty's Paradise
03. Brown-Baggin'
04. Synopsis Two: Mother's Day
05. Mother's Day
06. Foodstamps
07. Ghetto: Misfortune's Wealth
08. 24-Carat Black (Theme)

foobar2000 1.3.7 / Dynamic Range Meter 1.1.1
log date: 2018-02-24 04:08:22

––––––––––––––––––––––––––––––––––––––––
Analyzed: The 24-Carat Black / Ghetto: Misfortune's Wealth
––––––––––––––––––––––––––––––––––––––––

DR Peak RMS Duration Track
––––––––––––––––––––––––––––––––––––––––
DR9 0.00 dB -12.59 dB 8:39 01-Synopsis One In The Ghetto God Save The World
DR10 0.00 dB -12.04 dB 12:43 02-Poverty's Paradise
DR9 0.00 dB -10.59 dB 6:47 03-Brown-Baggin'
DR11 0.00 dB -13.62 dB 2:05 04-Synopsis Two Mother's Day
DR9 0.00 dB -11.19 dB 9:45 05-Mother's Day
DR9 0.00 dB -11.39 dB 6:28 06-Foodstamps
DR11 0.00 dB -12.56 dB 3:45 07-Ghetto Misfortune's Wealth
DR10 0.00 dB -11.81 dB 7:15 08-24-Carat Black (Theme)
––––––––––––––––––––––––––––––––––––––––

Number of tracks: 8
Official DR value: DR10

Samplerate: 192000 Hz
Channels: 2
Bits per sample: 24
Bitrate: 5355 kbps
Codec: FLAC
================================================================================


All thanks go to the original releaser