The Dandy Warhols - Thirteen Tales From Urban Bohemia Live At The Wonder (2014) [Official Digital Download]

Posted By: Pisulik
The Dandy Warhols - Thirteen Tales From Urban Bohemia Live At The Wonder (2014) [Official Digital Download]

The Dandy Warhols - Thirteen Tales From Urban Bohemia Live At The Wonder (2014)
FLAC (tracks) 24-bit/44.1 kHz | Time - 60:46 minutes | 690 MB
Studio Master, Official Digital Download | Artwork: Digital Booklet

While 13 might be unlucky to some, the Dandy Warhols embraced the inauspicious number on their first live album. Recorded in 2013 to celebrate the 13th anniversary of their third album, Thirteen Tales from Urban Bohemia Live at the Wonder finds the band re-creating its breakthrough album track for track. Although over a decade has passed since the album was originally released, this live set is dripping with the effortless cool of the original, offering fans a clear reminder of why these guys were the darlings of neo-psych both at home and abroad. The Dandys have claimed that they've tried to record live albums in the past, but Thirteen Tales from Urban Bohemia Live at the Wonder is the first one that's really taken, and listening to it, it doesn't take long to figure out why. This performance not only epitomizes the languid and stylish vibe the band puts out on its albums, but it shows that Thirteen Tales from Urban Bohemia was more than just a bit of studio magic.

Tracklist:

01. Godless (6:48)
02. Mohammed (5:51)
03. Nietzsche (6:37)
04. Country Leaver (3:27)
05. Solid (3:21)
06. Horse Pills (3:29)
07. Get Off (3:04)
08. Sleep (5:30)
09. Cool Scene (4:58)
10. Bohemian Like You (3:42)
11. Shakin (3:54)
12. Big Indian (3:36)
13. The Gospel (6:30)

foobar2000 1.3.7 / Dynamic Range Meter 1.1.1
log date: 2019-05-14 08:02:07

––––––––––––––––––––––––––––––––––––––––
Analyzed: The Dandy Warhols / Thirteen Tales From Urban Bohemia Live At The Wonder
––––––––––––––––––––––––––––––––––––––––

DR Peak RMS Duration Track
––––––––––––––––––––––––––––––––––––––––
DR8 -0.45 dB -10.52 dB 6:48 01-Godless
DR7 -0.43 dB -9.32 dB 5:51 02-Mohammed
DR8 -0.40 dB -10.43 dB 6:37 03-Nietzsche
DR10 -0.41 dB -12.72 dB 3:27 04-Country Leaver
DR8 -0.41 dB -10.54 dB 3:21 05-Solid
DR8 -0.45 dB -10.07 dB 3:29 06-Horse Pills
DR8 -0.37 dB -9.06 dB 3:04 07-Get Off
DR9 -0.04 dB -11.31 dB 5:30 08-Sleep
DR8 -0.33 dB -10.07 dB 4:58 09-Cool Scene
DR7 -0.28 dB -9.15 dB 3:42 10-Bohemian Like You
DR9 -0.41 dB -10.53 dB 3:54 11-Shakin
DR8 -0.14 dB -9.55 dB 3:36 12-Big Indian
DR9 -0.46 dB -12.47 dB 6:30 13-The Gospel
––––––––––––––––––––––––––––––––––––––––

Number of tracks: 13
Official DR value: DR8

Samplerate: 44100 Hz
Channels: 2
Bits per sample: 24
Bitrate: 1471 kbps
Codec: FLAC
================================================================================


All thanks go to the original releaser