Thelonious Monk - Mønk (2018) [Official Digital Download 24/96]

Posted By: Pisulik
Thelonious Monk - Mønk (2018) [Official Digital Download 24/96]

Thelonious Monk - Mønk (2018)
FLAC (tracks) 24-bit/96 kHz | Time - 41:44 minutes | 1,85 GB
Studio Master, Official Digital Download | Artwork: Front cover

Hot on the heels of Impulse’s recently unearthed Coltrane number one hit album comes another beauty from Jazz’s ‘Holy Trinity’. This is a previously unreleased, precious lost treasure from Monk’s most critically acclaimed line-up; Charlie Rouse on saxophone, John Ore on double bass, and Frankie Dunlop on drums. The music was recorded live in Copenhagen in 1963 at the peak of Monk’s career. A year later he was to feature on the cover of TIME magazine, one of only for 4 Jazz artists ever to do so.

The performance, a mixture of Monk originals and interpretations of standards, showcases Monk at his prime: full of avant-garde flair and wit, but always with a swinging feel that explains his title as the 'High Priest of Bebop'.

The original tapes, saved from a skip and blessed with the approval of the Monk estate, have been faithfully restored, mastered and cut using Gearbox's legendary all-analogue process.

Tracklist:

01. Bye-Ya (9:41)
02. Nutty (9:29)
03. I'm Getting Sentimental Over You (8:44)
04. Body and Soul (5:43)
05. Monk's Dream (8:07)

Personnel:

Thelonious Monk - piano
Charlie Rouse - tenor saxophone
John Ore - double bass
Frankie Dunlop - drums

foobar2000 1.3.7 / Dynamic Range Meter 1.1.1
log date: 2019-12-14 03:51:09

––––––––––––––––––––––––––––––––––––––––
Analyzed: Thelonious Monk / Mønk
––––––––––––––––––––––––––––––––––––––––

DR Peak RMS Duration Track
––––––––––––––––––––––––––––––––––––––––
DR13 -1.25 dB -15.80 dB 9:41 01-Bye-Ya
DR13 -1.25 dB -16.45 dB 9:29 02-Nutty
DR12 -1.39 dB -15.65 dB 8:44 03-I'm Getting Sentimental Over You
DR12 -3.38 dB -18.21 dB 5:43 04-Body and Soul
DR13 -1.25 dB -15.56 dB 8:07 05-Monk's Dream
––––––––––––––––––––––––––––––––––––––––

Number of tracks: 5
Official DR value: DR12

Samplerate: 96000 Hz
Channels: 2
Bits per sample: 24
Bitrate: 2846 kbps
Codec: FLAC
================================================================================


All thanks go to the original releaser