Theon Cross - Fyah (2019) [Official Digital Download 24/96]

Posted By: Pisulik
Theon Cross - Fyah (2019) [Official Digital Download 24/96]

Theon Cross - Fyah (2019)
FLAC (tracks) 24-bit/96 kHz | Time - 45:28 minutes | 960 MB
Studio Master, Official Digital Download | Artwork: Front cover

As one of the key players of the London jazz scene, Theon Cross has been dominating airwaves and stages recently. He's part of a thriving family network of young London-based musicians who have regularly supported one another in stretching and re-shaping the boundaries of the jazz genre.

Additional side-projects include performing and recording with individuals such as Makaya Mcraven, Sons of Kemet, and featuring on Gilles Peterson’s compilation album We Out Here. Within all this noise, Cross has also been leading his own trio project with Nubya Garcia and Moses Boyd. The band released an EP back in 2015 and are now following up with a full studio album, ‘Fyah’.

Cross makes the tuba his own, mixing together early New Orleans bass line influences as well as the synth soundscapes and rhythms from modern grime and trap. His innovative style brings a new dynamic to the scene as he paves the gap between more traditional jazz styles and dance music.

Tracklist:

01. Activate (4:47)
02. The Offerings (4:41)
03. Radiation (4:49)
04. Letting Go (7:11)
05. Candace of Meroe (5:48)
06. Panda Village (5:45)
07. CIYA (8:28)
08. LDN's Burning (3:59)

foobar2000 1.3.7 / Dynamic Range Meter 1.1.1
log date: 2019-12-14 03:57:20

––––––––––––––––––––––––––––––––––––––––
Analyzed: Theon Cross / Fyah
––––––––––––––––––––––––––––––––––––––––

DR Peak RMS Duration Track
––––––––––––––––––––––––––––––––––––––––
DR7 -1.22 dB -9.56 dB 4:47 01-Activate
DR10 -0.99 dB -12.11 dB 4:41 02-The Offerings
DR10 -0.98 dB -11.90 dB 4:49 03-Radiation
DR8 -0.99 dB -12.60 dB 7:11 04-Letting Go
DR10 -1.00 dB -12.12 dB 5:48 05-Candace of Meroe
DR8 -0.93 dB -11.38 dB 5:45 06-Panda Village
DR11 -0.99 dB -13.98 dB 8:28 07-CIYA
DR10 -0.99 dB -12.43 dB 3:59 08-LDN's Burning
––––––––––––––––––––––––––––––––––––––––

Number of tracks: 8
Official DR value: DR9

Samplerate: 96000 Hz
Channels: 2
Bits per sample: 24
Bitrate: 3009 kbps
Codec: FLAC
================================================================================


All thanks go to the original releaser