Thibault Cauvin - FILMS (2021) [Official Digital Download 24/96]

Posted By: shamanicus
Thibault Cauvin - FILMS (2021) [Official Digital Download 24/96]

Thibault Cauvin - FILMS (2021)
FLAC (tracks) 24-bit/96 kHz | 58:31 | 1010 mb
Studio Master, Official Digital Download | Artwork: front cover, d.booklet

For his album "Films", French guitarist Thibault Cauvin has written new arrangements for 18 hits from iconic film soundtracks. "City of Stars" from "La La Land", "Mystery of Love" from "Call Me By Your Name" or "The Imitation Game" are atmospheric guitar pieces full of breathtaking virtuosity. The album represents a special project of the heart for Thibault Cauvin. Cinema has accompanied him since childhood and is for him a place of longing for unlimited possibilities and a source of inspiration. Practically born with a guitar in his hand, Thibault Cauvin grew up in a family of musicians. He studied classical guitar at the Paris Conservatory and graduated with special honors. He is the only guitarist to date to have won 36 prizes in international guitar competitions, setting new standards in classical and modern guitar playing.

Tracklist:

01. Mystery of Love
02. In The Death Car (From "Arizona Dream")
03. The Poet Acts (From "The Hours")
04. Nightcall (From "Drive")
05. City of Stars (From " La La Land")
06. La Chanson d'Hélène (From "Les Choses de la vie" ("The Things of Life"))
07. De Ushuaia a La Quiaca (From "Diarios de motocicleta" ("Carnets de voyage"))
08. Yumeji's Theme (From "In the Mood for Love")
09. The Chase (From "Midnight Express")
10. The Name of Life (From "Spirited Away" ("Le Voyage de Chihiro"))
11. Générique (From "Ascenseur pour l'échafaud" ("Elevator to the Gallows"))
12. Dueling Banjos (From "Deliverance" ("Délivrance"))
13. The Imitation Game (From "Imitation Game")
14. Bang Bang (My Baby Shot Me Down) (From "Kill Bill")
15. Cockeye's Song (From "Once Upon a Time in America" ("Il était une fois en Amérique"))
16. George Valentine's Story (From "The Artist")
17. Cavatina (From "The Deer Hunter" ("Voyage au bout de l'enfer"))
18. Rolls (From "Les Valseuses" ("Going Places"))


foobar2000 1.4 / Dynamic Range Meter 1.1.1
log date: 2021-04-30 10:11:53

––––––––––––––––––––––––––––––––––––––––
Analyzed: Thibault Cauvin / FILMS
––––––––––––––––––––––––––––––––––––––––

DR Peak RMS Duration Track
––––––––––––––––––––––––––––––––––––––––
DR6 -0.10 dB -8.22 dB 3:26 01-Mystery of Love
DR9 -0.10 dB -11.34 dB 2:54 02-In The Death Car (From "Arizona Dream")
DR7 -0.10 dB -9.61 dB 3:22 03-The Poet Acts (From "The Hours")
DR5 -0.10 dB -8.16 dB 3:01 04-Nightcall (From "Drive")
DR9 -0.10 dB -11.87 dB 2:45 05-City of Stars (From " La La Land")
DR9 -0.10 dB -12.37 dB 3:18 06-La Chanson d'Hélène (From "Les Choses de la vie" ("The Things of Life"))
DR6 -0.10 dB -9.80 dB 2:56 07-De Ushuaia a La Quiaca (From "Diarios de motocicleta" ("Carnets de voyage"))
DR10 -0.10 dB -13.34 dB 3:18 08-Yumeji's Theme (From "In the Mood for Love")
DR8 -0.10 dB -8.90 dB 3:03 09-The Chase (From "Midnight Express")
DR9 -0.10 dB -12.54 dB 3:31 10-The Name of Life (From "Spirited Away" ("Le Voyage de Chihiro"))
DR9 -0.10 dB -12.94 dB 4:37 11-Générique (From "Ascenseur pour l'échafaud" ("Elevator to the Gallows"))
DR7 -0.10 dB -10.28 dB 1:45 12-Dueling Banjos (From "Deliverance" ("Délivrance"))
DR5 -0.10 dB -6.95 dB 2:33 13-The Imitation Game (From "Imitation Game")
DR7 -0.10 dB -9.88 dB 3:11 14-Bang Bang (My Baby Shot Me Down) (From "Kill Bill")
DR7 -0.10 dB -10.66 dB 3:32 15-Cockeye's Song (From "Once Upon a Time in America" ("Il était une fois en Amérique"))
DR8 -0.10 dB -10.93 dB 3:34 16-George Valentine's Story (From "The Artist")
DR12 -0.10 dB -14.40 dB 4:17 17-Cavatina (From "The Deer Hunter" ("Voyage au bout de l'enfer"))
DR8 -0.10 dB -11.04 dB 3:28 18-Rolls (From "Les Valseuses" ("Going Places"))
––––––––––––––––––––––––––––––––––––––––

Number of tracks: 18
Official DR value: DR8

Samplerate: 96000 Hz
Channels: 2
Bits per sample: 24
Bitrate: 2226 kbps
Codec: FLAC
================================================================================




Thanks to the Original customer.