Tomahawk - Tonic Immobility (2021) [Official Digital Download 24/96]

Posted By: shamanicus
Tomahawk - Tonic Immobility (2021) [Official Digital Download 24/96]

Tomahawk - Tonic Immobility (2021)
FLAC (tracks) 24-bit/96 kHz | 39:23 | 800 mb
Studio Master, Official Digital Download | Artwork: front cover

The first new album in eight years from Tomahawk. The band features Mike Patton (Faith No More, Mr. Bungle), Duane Denison (The Jesus Lizard), John Stanier (Battles, Helmet) and Trevor Dunn (Mr. Bungle).


Tracklist:

01. SHHH!
02. Valentine Shine
03. Predators and Scavengers
04. Doomsday Fatigue
05. Business Casual
06. Tattoo Zero
07. Fatback
08. Howlie
09. Eureka
10. Sidewinder
11. Recoil
12. Dog Eat Dog


foobar2000 1.4 / Dynamic Range Meter 1.1.1
log date: 2021-03-27 00:03:26

––––––––––––––––––––––––––––––––––––––––
Analyzed: Tomahawk / Tonic Immobility
––––––––––––––––––––––––––––––––––––––––

DR Peak RMS Duration Track
––––––––––––––––––––––––––––––––––––––––
DR6 -0.50 dB -9.58 dB 3:14 01-SHHH!
DR6 -0.50 dB -7.87 dB 3:01 02-Valentine Shine
DR6 -0.50 dB -8.72 dB 2:58 03-Predators and Scavengers
DR10 -0.50 dB -12.68 dB 3:30 04-Doomsday Fatigue
DR6 -0.50 dB -8.85 dB 3:29 05-Business Casual
DR7 -0.50 dB -9.08 dB 3:19 06-Tattoo Zero
DR6 -0.50 dB -7.63 dB 3:14 07-Fatback
DR7 -0.50 dB -10.08 dB 4:08 08-Howlie
DR7 -0.50 dB -9.44 dB 2:03 09-Eureka
DR7 -0.50 dB -10.12 dB 3:54 10-Sidewinder
DR7 -0.50 dB -9.10 dB 3:27 11-Recoil
DR6 -0.50 dB -7.86 dB 3:05 12-Dog Eat Dog
––––––––––––––––––––––––––––––––––––––––

Number of tracks: 12
Official DR value: DR7

Samplerate: 96000 Hz
Channels: 2
Bits per sample: 24
Bitrate: 2838 kbps
Codec: FLAC
================================================================================




Thanks to the Original customer.