Tags
Language
Tags

VA - Beauty And The Beast (Original Motion Picture Soundtrack) (Deluxe Edition) (2017) [Official Digital Download]

Posted By: Pisulik
VA - Beauty And The Beast (Original Motion Picture Soundtrack) (Deluxe Edition) (2017) [Official Digital Download]

VA - Beauty And The Beast (Original Motion Picture Soundtrack) (Deluxe Edition) (2017)
FLAC (tracks) 24-bit/44.1 kHz | Time - 131:55 minutes | 1,30 GB
Studio Master, Official Digital Download | Artwork: Front cover

The soundtrack to Disney’s resplendent live-action update of the animated classic gets a similarly opulent makeover with Ariana Grande, John Legend, Josh Groban, Céline Dion, Audra McDonald, and more. The album is filled with rousing sing-along moments perfect for the family trip (“Belle,” “Gaston,” and “Be Our Guest”) or when you need some alone time in the driveway (“How Does a Moment Last Forever” and “Evermore”).

Tracklist:

CD1:

01. Alan Menken - Overture
02. Alan Menken - Main Title: Prologue Pt. 1
03. Audra McDonald - Aria
04. Alan Menken - Main Title: Prologue Pt. 2
05. Emma Watson - Belle
06. Kevin Kline - How Does A Moment Last Forever (Music Box)
07. Emma Watson - Belle (Reprise)
08. Josh Gad - Gaston
09. Ewan McGregor - Be Our Guest
10. Adam Mitchell - Days In The Sun
11. Emma Watson - Something There
12. Emma Watson - How Does A Moment Last Forever (Montmartre)
13. Emma Thompson - Beauty and the Beast
14. Dan Stevens - Evermore
15. Luke Evans - The Mob Song
16. Audra McDonald - Beauty and the Beast (Finale)
17. Celine Dion - How Does A Moment Last Forever
18. Ariana Grande - Beauty and the Beast
19. Josh Groban - Evermore
20. Alan Menken - Aria (Demo)
21. Alan Menken - How Does A Moment Last Forever (Music Box) (Demo)
22. Alan Menken - Days In The Sun (Demo)
23. Alan Menken - How Does A Moment Last Forever (Montmartre) (Demo)
24. Alan Menken - Evermore (Demo)

foobar2000 1.3.7 / Dynamic Range Meter 1.1.1
log date: 2018-01-30 11:34:37

––––––––––––––––––––––––––––––––––––––––
Analyzed: Adam Mitchell / Beauty And The Beast (Original Motion Picture Soundtrack) (Deluxe Edition) (1)
Alan Menken / Beauty And The Beast (Original Motion Picture Soundtrack) (Deluxe Edition) (2-9)
Ariana Grande / Beauty And The Beast (Original Motion Picture Soundtrack) (Deluxe Edition) (10)
Audra McDonald / Beauty And The Beast (Original Motion Picture Soundtrack) (Deluxe Edition) (11-12)
Celine Dion / Beauty And The Beast (Original Motion Picture Soundtrack) (Deluxe Edition) (13)
Dan Stevens / Beauty And The Beast (Original Motion Picture Soundtrack) (Deluxe Edition) (14)
Emma Thompson / Beauty And The Beast (Original Motion Picture Soundtrack) (Deluxe Edition) (15)
Emma Watson / Beauty And The Beast (Original Motion Picture Soundtrack) (Deluxe Edition) (16-19)
Ewan McGregor / Beauty And The Beast (Original Motion Picture Soundtrack) (Deluxe Edition) (20)
Josh Gad / Beauty And The Beast (Original Motion Picture Soundtrack) (Deluxe Edition) (21)
Josh Groban / Beauty And The Beast (Original Motion Picture Soundtrack) (Deluxe Edition) (22)
Kevin Kline / Beauty And The Beast (Original Motion Picture Soundtrack) (Deluxe Edition) (23)
Luke Evans / Beauty And The Beast (Original Motion Picture Soundtrack) (Deluxe Edition) (24)
––––––––––––––––––––––––––––––––––––––––

DR Peak RMS Duration Track
––––––––––––––––––––––––––––––––––––––––
DR8 0.00 dB -11.67 dB 2:40 10-Days In The Sun
DR9 0.00 dB -12.45 dB 3:06 01-Overture
DR14 -0.92 dB -17.48 dB 0:43 02-Main Title Prologue Pt 1
DR10 0.00 dB -13.36 dB 2:22 04-Main Title Prologue Pt 2
DR8 0.00 dB -10.58 dB 0:36 20-Aria (Demo)
DR11 -0.05 dB -13.50 dB 0:59 21-How Does A Moment Last Forever (Music Box) (Demo)
DR9 0.00 dB -12.53 dB 3:31 22-Days In The Sun (Demo)
DR10 0.00 dB -15.27 dB 1:21 23-How Does A Moment Last Forever (Montmartre) (Demo)
DR8 0.00 dB -11.42 dB 2:56 24-Evermore (Demo)
DR8 0.00 dB -10.84 dB 3:48 18-Beauty and the Beast
DR7 0.00 dB -10.11 dB 1:03 03-Aria
DR8 0.00 dB -11.83 dB 2:14 16-Beauty and the Beast (Finale)
DR9 0.00 dB -12.67 dB 3:38 17-How Does A Moment Last Forever
DR7 0.00 dB -10.71 dB 3:15 14-Evermore
DR10 0.00 dB -14.29 dB 3:20 13-Beauty and the Beast
DR8 0.00 dB -11.29 dB 5:33 05-Belle
DR7 0.00 dB -10.54 dB 1:16 07-Belle (Reprise)
DR11 -0.06 dB -15.05 dB 2:55 11-Something There
DR11 -0.19 dB -16.61 dB 1:56 12-How Does A Moment Last Forever (Montmartre)
DR8 0.00 dB -11.14 dB 4:49 09-Be Our Guest
DR8 0.00 dB -10.89 dB 4:26 08-Gaston
DR7 0.00 dB -10.60 dB 3:09 19-Evermore
DR11 -0.15 dB -15.96 dB 1:04 06-How Does A Moment Last Forever (Music Box)
DR7 0.00 dB -10.59 dB 2:29 15-The Mob Song
––––––––––––––––––––––––––––––––––––––––

Number of tracks: 24
Official DR value: DR9

Samplerate: 44100 Hz
Channels: 2
Bits per sample: 24
Bitrate: 1588 kbps
Codec: FLAC
================================================================================


CD2:

01. Alan Menken - Main Title: Prologue
02. Alan Menken - Belle Meets Gaston
03. Alan Menken - Your Mother
04. Alan Menken - The Laverie
05. Alan Menken - Wolf Chase
06. Alan Menken - Entering the Castle
07. Alan Menken - A White Rose
08. Alan Menken - The Beast
09. Alan Menken - Meet the Staff
10. Alan Menken - Home (Extended Mix)
11. Alan Menken - Madame De Garderobe
12. Alan Menken - There's a Beast
13. Alan Menken - A Petal Drops
14. Alan Menken - A Bracing Cup of Tea
15. Alan Menken - The West Wing
16. Alan Menken - Wolves Attack Belle
17. Alan Menken - The Library
18. Alan Menken - Colonnade Chat
19. Alan Menken - The Plague
20. Alan Menken - Maurice Accuses Gaston
21. Alan Menken - Beast Takes a Bath
22. Alan Menken - The Dress
23. Alan Menken - You Must Go to Him
24. Alan Menken - Belle Stops the Wagon
25. Alan Menken - Castle Under Attack
26. Alan Menken - Turret Pursuit
27. Alan Menken - You Came Back
28. Alan Menken - Transformations

foobar2000 1.3.7 / Dynamic Range Meter 1.1.1
log date: 2018-01-30 11:40:55

––––––––––––––––––––––––––––––––––––––––
Analyzed: Alan Menken / Beauty And The Beast (Original Motion Picture Soundtrack) (Deluxe Edition)
––––––––––––––––––––––––––––––––––––––––

DR Peak RMS Duration Track
––––––––––––––––––––––––––––––––––––––––
DR9 -0.01 dB -14.32 dB 3:02 01-Main Title Prologue
DR11 -5.56 dB -23.89 dB 0:54 02-Belle Meets Gaston
DR10 -3.86 dB -21.62 dB 2:14 03-Your Mother
DR12 -4.52 dB -23.83 dB 1:22 04-The Laverie
DR8 0.00 dB -11.84 dB 3:15 05-Wolf Chase
DR13 -13.87 dB -32.15 dB 1:18 06-Entering the Castle
DR10 0.00 dB -14.73 dB 3:58 07-A White Rose
DR13 -0.18 dB -18.28 dB 4:04 08-The Beast
DR11 -2.44 dB -24.63 dB 1:01 09-Meet the Staff
DR10 -8.53 dB -25.27 dB 2:04 10-Home (Extended Mix)
DR11 -0.13 dB -17.00 dB 1:28 11-Madame De Garderobe
DR10 -7.56 dB -22.01 dB 2:02 12-There's a Beast
DR11 -0.20 dB -16.11 dB 1:03 13-A Petal Drops
DR12 -8.09 dB -26.36 dB 2:07 14-A Bracing Cup of Tea
DR14 -0.16 dB -18.98 dB 2:59 15-The West Wing
DR9 0.00 dB -12.76 dB 3:18 16-Wolves Attack Belle
DR11 -7.26 dB -24.54 dB 3:06 17-The Library
DR15 -0.21 dB -21.89 dB 2:53 18-Colonnade Chat
DR10 -9.19 dB -23.97 dB 0:52 19-The Plague
DR14 -0.12 dB -19.24 dB 2:02 20-Maurice Accuses Gaston
DR11 -0.17 dB -21.30 dB 1:22 21-Beast Takes a Bath
DR10 -2.46 dB -18.08 dB 1:02 22-The Dress
DR14 -3.04 dB -23.10 dB 2:51 23-You Must Go to Him
DR12 -0.11 dB -17.12 dB 2:42 24-Belle Stops the Wagon
DR11 0.00 dB -14.88 dB 4:21 25-Castle Under Attack
DR10 0.00 dB -12.72 dB 2:13 26-Turret Pursuit
DR10 0.00 dB -16.01 dB 5:14 27-You Came Back
DR12 -0.07 dB -16.24 dB 4:07 28-Transformations
––––––––––––––––––––––––––––––––––––––––

Number of tracks: 28
Official DR value: DR11

Samplerate: 44100 Hz
Channels: 2
Bits per sample: 24
Bitrate: 1508 kbps
Codec: FLAC
================================================================================


All thanks go to the original releaser