Ai Kuwabara - Opera (2021) [Official Digital Download 24/96]

Posted By: El Misha
Ai Kuwabara - Opera (2021) [Official Digital Download 24/96]

Ai Kuwabara - Opera (2021)
FLAC (tracks) 24-bit/96 kHz | Time - 01:07:49 | 1.06 GB
Studio Master, Official Digital Download | Artwork: Front cover

Kuwabara was born on September 21, 1991, the youngest of three girls. Older sisters Yu and Mako are also musical, and it was Mako who introduced Ai to her current musical partner Yusuke Morita, who was her classmate at the Tokyo College of Music.Kuwabara graduated from the Music Department at Senzoku Gakuen High School as a jazz piano major in 2010. She studied piano under Yuki Arimasa, Yoko Yamashita, and Kazune Zaima. She has won many awards including gold medals at the All-Japan Yamaha Electone Contest,[4] for both the lower elementary division and the upper elementary division. She has performed at the UNICEF Charity Concert and International Junior Original Concert. She was featured in AERA magazine as a “Genius Electone Girl.” In the middle of junior high school, she switched to playing the piano.She is 5ft 7in.



Tracklist:

01. New Cinema Paradise
02. Livin’ On A Prayer
03. Leonora's Love Theme
04. Loro
05. Waltz For Debby
06. Hoshikageno Yell
07. Going To A Town
08. Mishaps Happening
09. Everything Must Change
10. The Back
11. Daydream Believer

foobar2000 1.4 / Dynamic Range Meter 1.1.1
log date: 2021-04-08 05:26:42

––––––––––––––––––––––––––––––––––––––––
Analyzed: Ai Kuwabara / Opera
––––––––––––––––––––––––––––––––––––––––

DR Peak RMS Duration Track
––––––––––––––––––––––––––––––––––––––––
DR14 -2.46 dB -22.25 dB 8:16 01-New Cinema Paradise
DR12 -0.30 dB -16.71 dB 5:42 02-Livin’ On A Prayer
DR12 -1.17 dB -19.03 dB 5:34 03-Leonora's Love Theme
DR13 -0.30 dB -17.82 dB 6:31 04-Loro
DR13 -5.49 dB -23.84 dB 5:39 05-Waltz For Debby
DR12 -0.30 dB -18.82 dB 4:28 06-Hoshikageno Yell
DR13 -0.30 dB -19.31 dB 7:31 07-Going To A Town
DR12 -0.30 dB -17.79 dB 6:10 08-Mishaps Happening
DR12 -0.91 dB -20.27 dB 8:05 09-Everything Must Change
DR13 -1.65 dB -21.81 dB 6:00 10-The Back
DR12 -2.17 dB -18.29 dB 4:00 11-Daydream Believer
––––––––––––––––––––––––––––––––––––––––

Number of tracks: 11
Official DR value: DR13

Samplerate: 96000 Hz
Channels: 2
Bits per sample: 24
Bitrate: 2305 kbps
Codec: FLAC
================================================================================



Thanks to the Original customer!