Tags
Language
Tags

Akkapelimannit - Kaustinen (2021) [Official Digital Download]

Posted By: delpotro
Akkapelimannit - Kaustinen (2021) [Official Digital Download]

Akkapelimannit - Kaustinen (2021)
FLAC (tracks) 24-bit/44,1 kHz | Front Cover & Digital Booklet | Time - 60:40 minutes | 692 MB
Classical, Vocal, Folk | Label: Alba Records, Official Digital Download

Akkapelimannit (Female Folk Musicians, akka meaning a mature, married woman) are musicians from Kaustinen, Finland: Minna Järvelä teaches violinists at the Lahti Conservatoire, Jaana Virkkala teaches music to teacher students at the University of Jyväskylä, Kaija Saarikettu is a professor of violin music at the Sibelius Academy, Maria Pulakka and Leenakaisa Sandberg are violinists of the Ostrobothnian Chamber Orchestra and Kreeta-Maria Kentala is a freelancer baroque violinist. Merja Wirkkala has done her life’s work as a soloist in the Finnish National Opera and as a cantor, and Kaarina Nisonen as a pianist and accompanist at the Conservatory of Central Ostrobothnia. All these musicians have spent their childhood in Kaustinen playing music and singing, and each of them had their first big musical experiences in folk music.

Tracklist:
1. Ylitalon Jussin Marssi - Pääskysvalssi - Luomalan Masurkka - Vanha Jenkka - Tiltan Polkka (08:24)
2. Luonnon ääniä (04:14)
3. Hämärtäissä (02:13)
5. Iloa Ja Surua (01:52)
5. Kaustislainen Marssi (02:50)
6. Merimiehen Hauta (01:43)
7. Suruni Muuri (02:11)
8. Miettivä Sydän - Ihanalla Kedolla (02:21)
9. Mikonkankhan Marssi (02:29)
10. Mosalan Myllyllä (01:45)
11. Mosalan Olokan Flikuleeri (02:42)
12. Tiskivalssi (02:12)
13. Bergbackan Jenkka (02:13)
14. Pulakan Polokka (01:06)
15. D-duurialotus - Hoppatahti - Silia Valssi (Teksan Maijan Roskapuuvalssi) - A-molliflikuleeri - Hyppytahti - Villen Marssi (06:38)
16. Tulisuudelma (01:57)
17. Pieni Sydän (02:57)
18. Kruunu-Marjaanan Polska (02:13)
19. Metsämarssi (02:24)
20. Tähtisilmä (03:25)
21. Käki-Jaakon Polkka - Tuikkauspolkka - Nikkarin Polkka (02:42)

foobar2000 1.4.1 / Dynamic Range Meter 1.1.1
log date: 2021-03-03 12:06:46

––––––––––––––––––––––––––––––––––––––––
Analyzed: Akkapelimannit / Kaustinen
––––––––––––––––––––––––––––––––––––––––

DR Peak RMS Duration Track
––––––––––––––––––––––––––––––––––––––––
DR11 -0.30 dB -12.86 dB 8:25 01-Ylitalon Jussin marssi - Pääskysvalssi - Luomalan masurkka - Vanha jenkka - Tiltan polkka
DR11 -0.50 dB -13.50 dB 4:14 02-Luonnon ääniä
DR10 -0.30 dB -12.81 dB 2:13 03-Hämärtäissä
DR10 -0.92 dB -12.91 dB 1:52 04-Iloa ja surua
DR11 -0.30 dB -13.34 dB 2:50 05-Kaustislainen marssi
DR11 -0.30 dB -12.81 dB 1:44 06-Merimiehen hauta
DR10 -0.30 dB -12.54 dB 2:12 07-Suruni suuri
DR11 -0.30 dB -14.03 dB 2:21 08-Miettivä sydän - Ihanalla kedolla
DR11 -0.30 dB -12.51 dB 2:30 09-Mikonkankhan marssi
DR11 -0.30 dB -13.11 dB 1:45 10-Mosalan myllyllä
DR11 -0.30 dB -13.63 dB 2:42 11-Mosalan Olokan flikuleeri
DR11 -0.30 dB -13.13 dB 2:12 12-Tiskivalssi
DR11 -0.30 dB -12.78 dB 2:14 13-Bergbackan jenkka
DR11 -0.30 dB -13.11 dB 1:07 14-Pulakan polokka
DR11 -0.30 dB -12.52 dB 6:39 15-D-duurialotus - Hoppatahti - Silia valssi - A-molli flikuleeri - Hyppytahti - Villen marssi
DR9 -0.30 dB -11.57 dB 1:58 16-Tulisuudelma
DR10 -0.30 dB -12.49 dB 2:57 17-Pieni sydän
DR11 -0.93 dB -14.72 dB 2:13 18-Kruunu-marjaanan polska
DR10 -1.54 dB -13.61 dB 2:25 19-Metsämarssi
DR10 -0.93 dB -13.37 dB 3:25 20-Tähtisilmä-valssi
DR11 -0.30 dB -14.03 dB 2:42 21-Käki-jaakon polkka - Tuikkauspolkka - Nikkarin polkka
––––––––––––––––––––––––––––––––––––––––

Number of tracks: 21
Official DR value: DR11

Samplerate: 44100 Hz
Channels: 2
Bits per sample: 24
Bitrate: 1625 kbps
Codec: FLAC
================================================================================


Thanks to the Original customer!