Tags
Language
Tags
July 2024
Su Mo Tu We Th Fr Sa
30 1 2 3 4 5 6
7 8 9 10 11 12 13
14 15 16 17 18 19 20
21 22 23 24 25 26 27
28 29 30 31 1 2 3

Al-Fajer Group - Al Fajer (The Dawn) (1988/2022) [Official Digital Download 24/96]

Posted By: delpotro
Al-Fajer Group - Al Fajer (The Dawn) (1988/2022) [Official Digital Download 24/96]

Al-Fajer Group - Al Fajer (The Dawn) (1988/2022)
FLAC (tracks) 24-bit/96 kHz | Front Cover | Time - 37:50 minutes | 826 MB
World, Female Vocal | Label: Majazz Project, Official Digital Download

Al Fajer Group was established in Kuwait in 1987, co-founded by four artists: Sima Kanaan (Vocals), Bashar Shammout (Guitar) Jameel Saraj (Oud and Guitar) and Nizar Alyan (Percussion). Al Fajer Group became known for their unique frequencies and the transparency of their sound. The band is rooted in acoustic oud, guitar and percussion and they never used any electronic equipment during their sets. When they were first established they would perform Palestinian patriotic songs, related to the Palestinian liberation struggle. They released their launch album, recorded on reel tapes, during the First Intifada in 1988, after which they began composing and writing their own original music. They were unable to release this due to the Iraqi invasion of Kuwait in 1990, when all the band members were forced to leave the country and could not reunite to release the second album. During the limited time in which they were able to work together, they participated in multiple tours in Kuwait, Iraq, Germany and other locations.

Tracklist:
01. Halalalalayya (هلالاليا)
02. 3an Insan (عن إنسان)
03. Rubbama (ربما)
04. Liqaa (لقاء)
05. Filisteen (فلسطين)
06. 3aneed Ana (عنيد أنا)
07. 3an Al Umniyat (عن الأمنيات)
08. Yamma Mweil El Hawa (يما مويل الهوى)
09. U3linuha (أعلنها)
10. Halalalalayya Music (موسيقى هلالاليا)

foobar2000 1.4.1 / Dynamic Range Meter 1.1.1
log date: 2023-12-18 17:14:15

––––––––––––––––––––––––––––––––––––––––
Analyzed: Al-Fajer Group / Al Fajer (The Dawn) / فرقة الفجر الفلسطينية
––––––––––––––––––––––––––––––––––––––––

DR Peak RMS Duration Track
––––––––––––––––––––––––––––––––––––––––
DR13 0.00 dB -16.23 dB 7:10 01-Halalalalayya (هلالاليا)
DR11 0.00 dB -14.83 dB 5:43 02-3an Insan (عن إنسان)
DR12 0.00 dB -15.40 dB 1:54 03-Rubbama (ربما)
DR12 -0.17 dB -15.15 dB 2:44 04-Liqaa (لقاء)
DR13 0.00 dB -17.90 dB 1:26 05-Filisteen (فلسطين)
DR11 -2.12 dB -16.80 dB 2:30 06-3aneed Ana (عنيد أنا)
DR12 0.00 dB -15.62 dB 3:24 07-3an Al Umniyat (عن الأمنيات)
DR12 0.00 dB -14.64 dB 4:10 08-Yamma Mweil El Hawa (يما مويل الهوى)
DR11 0.00 dB -14.16 dB 3:02 09-U3linuha (أعلنها)
DR13 0.00 dB -16.70 dB 5:48 10-Halalalalayya Music (موسيقى هلالاليا)
––––––––––––––––––––––––––––––––––––––––

Number of tracks: 10
Official DR value: DR12

Samplerate: 96000 Hz
Channels: 2
Bits per sample: 24
Bitrate: 2990 kbps
Codec: FLAC
================================================================================


Thanks to the Original customer!