Tags
Language
Tags

Alan Simon - Excalibur I: The Legend of the Celts (1998/2018/2021) [Official Digital Download]

Posted By: delpotro
Alan Simon - Excalibur I: The Legend of the Celts (1998/2018/2021) [Official Digital Download]

Alan Simon - Excalibur I: The Legend of the Celts (1998/2018/2021)
FLAC (tracks) 24-bit/44,1 kHz | Front Cover | Time - 54:48 minutes | 651 MB
Progressive Rock, Folk Rock, Celtic Rock | Label: Babaika Productions, Official Digital Download

Alan Simon is a French folk-rock musician and composer, best known for his rock operas performed with noted rock musicians guesting. Simon is associated with Breton Celticism, and his most ambitious works are typically on themes linked to Celtic myth and history. Simon achieved fame with his rock opera Excalibur, La Légende des Celtes (Excalibur, The Legend of the Celts) (Sony) in 1999, of which he was both songwriter and producer. The first part of an intended trilogy, Excalibur blended musical styles and was performed by Roger Hodgson (ex-Supertramp), Fairport Convention, Dan Ar Braz, Tri Yann, Angelo Branduardi, Didier Lockwood and Gabriel Yacoub. Within weeks, the album went top 10 and gold in France. Five concert performances took place between October 1999 and June 2000, including one at Paris-Bercy. A live recording, released as Excalibur, le concert mythique (Excalibur, the legendary concert) (CD and DVD) was recorded at the first performance in Rennes, October 12, 1999.

Tracklist:
1. Dihun (feat. Alan Simon) (01:49)
2. Pour L'amour De Le Reine (feat. Alan Simon) (03:48)
3. The Elements (feat. Alan Simon) (04:23)
4. Castel Rock (feat. Alan Simon) (02:52)
5. Morning Song (feat. Alan Simon) (03:29)
6. Celtic Dream (feat. Alan Simon) (03:57)
7. Ad Libitum (feat. Alan Simon) (02:54)
8. Morgane (feat. Alan Simon) (04:29)
9. The Gest of Gauvain (feat. Alan Simon) (04:34)
10. Davet Ar Badadoz (feat. Alan Simon) (02:03)
11. La Complainte De Perceval (feat. Alan Simon) (04:27)
12. The Quest (feat. Alan Simon) (01:08)
13. The Will of God (feat. Alan Simon) (04:27)
14. Camlann (feat. Alan Simon) (04:40)
15. L' Appel De Galahad (feat. Alan Simon) (01:16)
16. Excalibur (feat. Alan Simon) (02:53)
17. Vers L'ile D'avalon (feat. Alan Simon) (01:30)

foobar2000 1.4.1 / Dynamic Range Meter 1.1.1
log date: 2021-07-07 11:47:14

––––––––––––––––––––––––––––––––––––––––
Analyzed: Alan Simon / Excalibur I: The Legend of the Celts
––––––––––––––––––––––––––––––––––––––––

DR Peak RMS Duration Track
––––––––––––––––––––––––––––––––––––––––
DR6 -0.20 dB -8.74 dB 1:49 01-Dihun
DR7 0.00 dB -8.59 dB 3:49 02-Pour l'amour de la reine
DR7 -0.10 dB -11.31 dB 4:23 03-The Elements
DR6 -0.12 dB -8.07 dB 2:52 04-Castle Rock
DR7 -0.22 dB -10.85 dB 3:29 05-Morning Song
DR6 -0.21 dB -7.99 dB 3:58 06-Celtic Dream
DR8 -0.36 dB -11.51 dB 2:54 07-Ad Libitum
DR7 -0.10 dB -9.51 dB 4:30 08-Morgane
DR7 -0.14 dB -9.43 dB 4:35 09-The Gest Of Gauvain
DR7 -0.27 dB -12.30 dB 2:03 10-Davet Ar Baradoz
DR6 -0.20 dB -8.01 dB 4:27 11-La complainte de Perceval
DR6 -0.28 dB -9.43 dB 1:09 12-The Quest
DR6 0.00 dB -8.00 dB 4:27 13-The Will Of God
DR6 -0.05 dB -7.39 dB 4:41 14-Camlann
DR11 -1.02 dB -14.90 dB 1:17 15-L'appel de Galahad
DR6 -0.07 dB -7.30 dB 2:54 16-Excalibur
DR10 -4.10 dB -18.56 dB 1:31 17-Vers l'île d'Avalon
––––––––––––––––––––––––––––––––––––––––

Number of tracks: 17
Official DR value: DR7

Samplerate: 44100 Hz
Channels: 2
Bits per sample: 24
Bitrate: 1525 kbps
Codec: FLAC
================================================================================


Thanks to the Original customer!