Tags
Language
Tags

Alan Simon - Excalibur III: The Origins (2012/2018/2021) [Official Digital Download 24/48]

Posted By: delpotro
Alan Simon - Excalibur III: The Origins (2012/2018/2021) [Official Digital Download 24/48]

Alan Simon - Excalibur III: The Origins (2012/2018/2021)
FLAC (tracks) 24-bit/48 kHz | Front Cover | Time - 67:45 minutes | 833 MB
Progressive Rock, Folk Rock, Celtic Rock | Label: Babaika Productions, Official Digital Download

Newly remastered: Excalibur III is the CRITICALLY ACCLAIMED third album of the quadrilogy based on the legendary Arthurian saga. This definitive album re-release is based on the legendary story of CELTS features guest appearances from: Moya Brennan (Clannad)/Martin Barre (Jethro Tull)/Les Holroyd (Barclay James Harvest)/Mick Fleetwood & Jeremy Spencer (Fleetwood Mac)/John Helliwell (Supertramp)/Billy Preston/Fairport Convention/Didier Lockwood/Jacqui McShee (Pentangle)/Bruce Guthro (Runrig)/Moya Brennan (Clannad)/John Wetton (King Crimson / Asia)/Geoff Downes (Asia).

Tracklist:
1. The Origins, Pt. I (03:34)
2. Saman (03:35)
3. Tamlah (03:24)
4. Evil Day (03:31)
5. Iron Age (05:11)
6. Motherland (03:36)
7. Skye (03:13)
8. Beltaine (02:44)
9. Incantations (03:41)
10. The Promise (03:50)
11. The Legend Of Oisin (04:09)
12. The Origins, Pt. II (03:54)
13. Fame And Glory (03:19)
14. Fir Mhor (04:36)
15. Sacred Lands (02:51)
16. Roma (01:47)
17. The Lost Season (04:00)
18. Dun Aengus (03:24)
19. The Wind Of Celtic Dream (03:16)

foobar2000 1.4.1 / Dynamic Range Meter 1.1.1
log date: 2021-07-04 16:35:58

––––––––––––––––––––––––––––––––––––––––
Analyzed: Alan Simon / Excalibur III: The Origins
––––––––––––––––––––––––––––––––––––––––

DR Peak RMS Duration Track
––––––––––––––––––––––––––––––––––––––––
DR9 -0.07 dB -12.72 dB 3:35 01-The Origins, Pt. I
DR7 0.00 dB -8.44 dB 3:36 02-Saman
DR7 0.00 dB -8.62 dB 3:25 03-Tamlah
DR7 0.00 dB -8.76 dB 3:32 04-Evil Day
DR7 0.00 dB -9.48 dB 5:11 05-Iron Age
DR9 -0.01 dB -12.28 dB 3:36 06-Motherland
DR8 0.00 dB -10.31 dB 3:13 07-Skye
DR8 0.00 dB -9.02 dB 2:45 08-Beltaine
DR10 0.00 dB -12.60 dB 3:42 09-Incantations
DR8 0.00 dB -12.09 dB 3:51 10-The Promise
DR8 0.00 dB -11.76 dB 4:09 11-The Legend Of Oisin
DR8 -0.97 dB -12.20 dB 3:54 12-The Origins, Pt. II
DR8 -0.02 dB -10.73 dB 3:20 13-Fame And Glory
DR8 0.00 dB -10.65 dB 4:37 14-Fir Mhor
DR8 -1.09 dB -12.16 dB 2:52 15-Sacred Lands
DR8 -0.09 dB -11.06 dB 1:48 16-Roma
DR8 0.00 dB -10.39 dB 4:01 17-The Lost Season
DR7 0.00 dB -10.02 dB 3:25 18-Dun Aengus
DR7 -0.85 dB -11.66 dB 3:17 19-The Wind Of Celtic Dream
––––––––––––––––––––––––––––––––––––––––

Number of tracks: 19
Official DR value: DR8

Samplerate: 48000 Hz
Channels: 2
Bits per sample: 24
Bitrate: 1711 kbps
Codec: FLAC
================================================================================


Thanks to the Original customer!