Tags
Language
Tags
June 2024
Su Mo Tu We Th Fr Sa
26 27 28 29 30 31 1
2 3 4 5 6 7 8
9 10 11 12 13 14 15
16 17 18 19 20 21 22
23 24 25 26 27 28 29
30 1 2 3 4 5 6

Andreas Dreier, John Pål Inderberg, Bjørn Vidar Solli, Frederik Villmow & Kristoffer Kompen - One For John! (2024) [24/48]

Posted By: delpotro
Andreas Dreier, John Pål Inderberg, Bjørn Vidar Solli, Frederik Villmow & Kristoffer Kompen - One For John! (2024) [24/48]

Andreas Dreier, John Pål Inderberg, Bjørn Vidar Solli, Frederik Villmow & Kristoffer Kompen - One For John! (2024)
FLAC (tracks) 24-bit/48 kHz | Front Cover | Time - 39:31 minutes | 469 MB
Jazz, Post-Bop | Label: Losen Records, Official Digital Download

The background for this release is that I have previously released two guitar trio records; LOS 130-2 Poinciana (2014) and LOS 175-2 But Not For Me (2017), both on Losen Records. This music is inspired by the American pianist Ahmad Jamal and especially his trio in the late 1950s with drummer Vernel Fournier and bassist Israel Cosby. Their trio sound has been a great inspiration for me, with their elegant swinging cool jazz, beautifully arranged with playful spontaneity – pure magic! This release One For John! can in many ways be heard as an extension of my two previous albums, thus completing a trilogy. However this time, the standards have been replaced by original compositions. In collaboration with Frederik Villmow, all but one song has been composed especially for this project. It is with great pleasure that we can now share this music with you and we hope that you will enjoy the album.

Andreas Dreier double bass
John Pål Inderberg baritone sax
Bjørn Vidar Solli guitar
Frederik Villmow drums & percussion
Kristoffer Kompen trombone tracks 4 & 5

Tracklist:
1. Ahmad´s Waltz (5:08)
2. Two In One (4:26)
3. One for John! (7:08)
4. Papa Blues (5:14)
5. Morning Path (5:18)
6. George (6:40)
7. Reflection (5:36)

foobar2000 1.4.1 / Dynamic Range Meter 1.1.1
log date: 2024-02-06 13:22:56

––––––––––––––––––––––––––––––––––––––––
Analyzed: Andreas Dreier / One For John!
––––––––––––––––––––––––––––––––––––––––

DR Peak RMS Duration Track
––––––––––––––––––––––––––––––––––––––––
DR9 -0.53 dB -11.74 dB 5:08 01-Ahmad´s Waltz
DR9 -0.52 dB -11.66 dB 4:26 02-Two In One
DR9 -0.53 dB -11.00 dB 7:08 03-One for John!
DR10 -0.53 dB -12.46 dB 5:14 04-Papa Blues
DR10 -0.53 dB -12.77 dB 5:18 05-Morning Path
DR10 -0.53 dB -12.66 dB 6:40 06-George
DR10 -0.53 dB -13.71 dB 5:36 07-Reflection
––––––––––––––––––––––––––––––––––––––––

Number of tracks: 7
Official DR value: DR10

Samplerate: 48000 Hz
Channels: 2
Bits per sample: 24
Bitrate: 1634 kbps
Codec: FLAC
================================================================================


Thanks to the Original customer!