Tags
Language
Tags

Andrzej Przybielski & Oleś Brothers – Short Farewell: The Lost Session (2021) [Official Digital Download]

Posted By: El Misha
Andrzej Przybielski & Oleś Brothers – Short Farewell: The Lost Session (2021) [Official Digital Download]

Andrzej Przybielski & Oleś Brothers – Short Farewell: The Lost Session (2021)
FLAC (tracks) 24-bit/48 kHz | Time - 28:07 | 305 MB
Studio Master, Official Digital Download | Artwork: Front cover

A native sensation for John Coltrane's Both Directions at Once: The Lost Album. Tapes from the forgotten session of Andrzej Przybielski with Bartłomiej and Marcin Oleś have been found. That's when new, never-before-published recordings by the creator of modern jazz, John Coltrane, were released, and now, when recordings made in 2003 by the ultra-modern trio Andrzej Przybielski / Marcin Oleś / Bartłomiej Oleś have been found. Today is the premiere of the extraordinary album "Short Farewell: The Lost Session".



Tracklist:

1. Andrzej Przybielski - It's Time
2. Andrzej Przybielski - 12 Vitamins
3. Andrzej Przybielski - Loneliness
4. Andrzej Przybielski - Short Farewell
5. Andrzej Przybielski - A Walk
6. Andrzej Przybielski - Reverie
7. Andrzej Przybielski - Long Night
8. Andrzej Przybielski - Sunday With Clark
9. Andrzej Przybielski - In Pursuit of Madness
10. Andrzej Przybielski - Drum-Trumpet Circus
11. Andrzej Przybielski - On the Wing

foobar2000 1.4 / Dynamic Range Meter 1.1.1
log date: 2021-02-10 15:41:19

––––––––––––––––––––––––––––––––––––––––
Analyzed: Andrzej Przybielski / Short Farewell: The Lost Session
––––––––––––––––––––––––––––––––––––––––

DR Peak RMS Duration Track
––––––––––––––––––––––––––––––––––––––––
DR15 -0.68 dB -20.84 dB 0:53 01-It's Time
DR13 -0.05 dB -15.93 dB 12:07 02-12 Vitamins
DR16 -0.32 dB -23.14 dB 1:46 03-Loneliness
DR13 -0.23 dB -18.30 dB 3:56 04-Short Farewell
DR12 -0.89 dB -15.07 dB 0:49 05-A Walk
DR14 -0.80 dB -21.16 dB 0:49 06-Reverie
DR13 -1.77 dB -18.75 dB 1:53 07-Long Night
DR14 -0.44 dB -17.78 dB 2:12 08-Sunday With Clark
DR13 -0.05 dB -14.87 dB 3:11 09-In Pursuit of Madness
DR17 -0.49 dB -20.13 dB 0:23 10-Drum-Trumpet Circus
DR3 -1.53 dB -16.62 dB 0:15 11-On the Wing
––––––––––––––––––––––––––––––––––––––––

Number of tracks: 11
Official DR value: DR13

Samplerate: 48000 Hz
Channels: 2
Bits per sample: 24
Bitrate: 995 kbps
Codec: FLAC
================================================================================



Thanks to the Original customer!