Tags
Language
Tags

Angela Gheorghiu - Romanian Songs (EP) (2021) [Official Digital Download]

Posted By: delpotro
Angela Gheorghiu - Romanian Songs (EP) (2021) [Official Digital Download]

Angela Gheorghiu - Romanian Songs (EP) (2021)
FLAC (tracks) 24-bit/44,1 kHz | Front Cover | Time - 15:49 minutes | 164 MB
Classical, Vocal | Label: Warner Classics, Official Digital Download

Superstar Angela Gheorghiu, the most glamorous and gifted opera singer of our time, was born in the small Romanian town Adjud. From early childhood it was obvious that she will become a singer, her destiny was the music. She attended the Music School in Bucharest and graduated the National University of Music Bucharest, where she studied with the remarkable music teacher Mia Barbu. Ms. Gheorghiu’s magnificent voice and dazzling stage presence have established her as a unique international opera superstar.

Tracklist:
1. Gavin Greenaway, Royal Philharmonic Orchestra & Angela Gheorghiu – Who Knew (Sanie cu zurgalai) (03:23)
2. Gavin Greenaway, Royal Philharmonic Orchestra & Angela Gheorghiu – Brazen - Weep (Barca pe valuri) (04:28)
3. Gavin Greenaway, Royal Philharmonic Orchestra & Angela Gheorghiu – The One That Got Away (Ionel Ionelule) (04:23)
4. Gavin Greenaway, Royal Philharmonic Orchestra & Angela Gheorghiu – This Is Your Life (Mai spune-mi ca nu m-ai uitat) (03:34)

foobar2000 1.4.1 / Dynamic Range Meter 1.1.1
log date: 2021-03-26 07:07:43

––––––––––––––––––––––––––––––––––––––––
Analyzed: Angela Gheorghiu / Romanian Songs
––––––––––––––––––––––––––––––––––––––––

DR Peak RMS Duration Track
––––––––––––––––––––––––––––––––––––––––
DR11 -0.14 dB -16.46 dB 3:23 01-Stein / Arr. Calandrelli: Who Knew (Sanie cu zurgalai)
DR10 -0.93 dB -15.60 dB 4:28 02-Giroveanu: Brazen - Weep (Barca pe valuri)
DR11 -0.10 dB -15.73 dB 4:24 03-Romano: The One That Got Away (Ionel Ionelule)
DR10 -0.26 dB -14.60 dB 3:34 04-Dendrino: This Is Your Life (Mai spune-mi ca nu m-ai uitat)
––––––––––––––––––––––––––––––––––––––––

Number of tracks: 4
Official DR value: DR11

Samplerate: 44100 Hz
Channels: 2
Bits per sample: 24
Bitrate: 1422 kbps
Codec: FLAC
================================================================================


Thanks to the Original customer!