Anna Ternheim - A Space for Lost Time (Extended Edition) (2019/2021) [Official Digital Download 24/44-48]

Posted By: delpotro
Anna Ternheim - A Space for Lost Time (Extended Edition) (2019/2021) [Official Digital Download 24/44-48]

Anna Ternheim - A Space for Lost Time (Extended Edition) (2019/2021)
FLAC (tracks) 24-bit/44,1-48 kHz | Front Cover | Time - 61:45 minutes | 684 MB
Indie Folk, Indie Pop, Female Vocal | Label: BMG Rights Management, Official Digital Download

It’s a delicate affair, a tender and heartfelt introspection carried on a looping drumbeat that sees Ternheim in a contemplative mood as she sings about the pain and memories that come with a lost friendship.

And that’s a mood that carries its way right into the heart of the new album. Ternheim has described A Space For Lost Time’s sound as “American west coast meets the dark Swedish woods,” and “like a windless black lake.”

She clearly has a way with words, and This Is The One is a song that reminds us of Ternheim’s undoubted ability as a lyricist. We met the only day it ever snowed / in all the gardens snowmen waved hello / Everything changes when you believe it won’t / that dawn is the loneliest place I know is as good an opening verse as she’s ever written.

That the track is a collaboration with Yttling bodes well too – the Scandinavian pop supremo produced Ternheim’s Swedish Grammy award-wining album Leaving On A Mayday.

The follow-up to that record – The Night Visitor – was recorded in Nashville, while All The Way To Rio saw Ternheim in the studio in – as the name suggests – Brazil.

A Space For Lost Time once again sees the singer/songwriter recording in a nomadic fashion, with sessions completed in Stockholm, New York and Los Angeles.

“I wrote the music for ‘This Is The One’ together with Bjorn Yttling from Peter Bjorn & John, the lyrics came long afterwards. It was a Thursday afternoon in Stockholm I ran into a person I use to be very close to. Now we were complete strangers, remember it was such a weird feeling. I went home straight after and wrote the words for the song.” (Anna Ternheim)

Tracklist:
1. Everytime We Fall (feat. Lambert) [Naked Version] (03:42)
2. Remember This (feat. Kaiser Quartett) [Naked Version] (03:09)
3. Walk Your Own Way (feat. Helgi Jonsson) [Naked Version] (03:32)
4. When You Were Mine (feat. Kaiser Quartett) [Naked Version] (03:18)
5. This Is the One (feat. Lambert) [Naked Version] (03:44)
6. Lost Times (feat. Lambert) [Naked Version] (03:06)
7. Stars (Naked Version) (03:11)
8. You Belong With Me (Naked Version) (03:28)
9. This Is the One (03:41)
10. You Belong With Me (03:26)
11. Everytime We Fall (03:43)
12. When You Were Mine (04:05)
13. Remember This (03:03)
14. Lost Times (03:24)
15. Stars (03:14)
16. Walk Your Own Way (03:55)
17. All Because of You (03:18)
18. Oh Mary (02:39)

foobar2000 1.6.6 / Dynamic Range Meter 1.1.1
log date: 2021-06-12 16:15:46

––––––––––––––––––––––––––––––––––––––––
Analyzed: Anna Ternheim / A Space for Lost Time (Extended Version)
––––––––––––––––––––––––––––––––––––––––

DR Peak RMS Duration Track
––––––––––––––––––––––––––––––––––––––––
DR6 -0.28 dB -7.32 dB 3:43 01-Everytime We Fall (feat. Lambert) (Naked Version)
DR7 -0.22 dB -9.48 dB 3:09 02-Remember This (feat. Kaiser Quartett) (Naked Version)
DR6 -0.22 dB -9.04 dB 3:33 03-Walk Your Own Way (Naked Version)
DR8 -0.22 dB -9.56 dB 3:19 04-When You Were Mine (feat. Kaiser Quartett) (Naked Version)
DR8 -0.28 dB -10.55 dB 3:44 05-This Is the One (feat. Lambert) (Naked Version)
DR6 -0.28 dB -9.84 dB 3:06 06-Lost Times (feat. Lambert) (Naked Version)
DR8 -0.22 dB -11.16 dB 3:11 07-Stars (Naked Version)
DR7 -0.22 dB -11.19 dB 3:28 08-You Belong With Me (Naked Version)
––––––––––––––––––––––––––––––––––––––––

Number of tracks: 8
Official DR value: DR7

Samplerate: 44100 Hz
Channels: 2
Bits per sample: 24
Bitrate: 1181 kbps
Codec: FLAC
================================================================================

––––––––––––––––––––––––––––––––––––––––
Analyzed: Anna Ternheim / A Space for Lost Time (Extended Version)
––––––––––––––––––––––––––––––––––––––––

DR Peak RMS Duration Track
––––––––––––––––––––––––––––––––––––––––
DR7 -0.48 dB -10.16 dB 3:41 09-This Is the One
DR7 -0.48 dB -9.65 dB 3:27 10-You Belong With Me
DR6 -0.48 dB -8.98 dB 3:44 11-Everytime We Fall
DR6 -0.48 dB -9.18 dB 4:05 12-When You Were Mine
DR5 -0.48 dB -8.14 dB 3:04 13-Remember This
DR6 -0.48 dB -9.11 dB 3:24 14-Lost Times
DR6 -0.48 dB -8.88 dB 3:14 15-Stars
DR6 -0.48 dB -8.70 dB 3:56 16-Walk Your Own Way
DR6 -0.48 dB -8.53 dB 3:18 17-All Because of You
DR7 -0.48 dB -9.76 dB 2:39 18-Oh Mary
––––––––––––––––––––––––––––––––––––––––

Number of tracks: 10
Official DR value: DR6

Samplerate: 48000 Hz
Channels: 2
Bits per sample: 24
Bitrate: 1508 kbps
Codec: FLAC
================================================================================


Thanks to the Original customer!