Tags
Language
Tags
July 2024
Su Mo Tu We Th Fr Sa
30 1 2 3 4 5 6
7 8 9 10 11 12 13
14 15 16 17 18 19 20
21 22 23 24 25 26 27
28 29 30 31 1 2 3

Ariel Kalma - Kalma Meli Melo (2024) [Official Digital Download 24/48]

Posted By: delpotro
Ariel Kalma - Kalma Meli Melo (2024) [Official Digital Download 24/48]

Ariel Kalma - Kalma Meli Melo (2024)
FLAC (tracks) 24-bit/48 kHz | Front Cover | Time - 68:27 minutes | 808 MB
Electronic, Ambient, New Age | Label: Ariel Kalma, Official Digital Download

One hour of Kalma experiments in a Meli Melo…(Title *year recorded)

Tracklist:
1. Yaha Groove Eko 82 (17:31)
2. Harmonium Long Delay 73 (18:26)
3. Breathing Flute 88 (20:02)
4. Singing Lesson 79 (12:28)

foobar2000 1.4.1 / Dynamic Range Meter 1.1.1
log date: 2024-03-17 18:29:51

––––––––––––––––––––––––––––––––––––––––
Analyzed: Ariel Kalma / Kalma Meli Melo
––––––––––––––––––––––––––––––––––––––––

DR Peak RMS Duration Track
––––––––––––––––––––––––––––––––––––––––
DR7 -3.02 dB -10.91 dB 17:31 01-Yaha Groove Eko 82
DR12 -0.19 dB -12.38 dB 18:26 02-Harmonium Long Delay 73
DR10 -0.18 dB -13.01 dB 20:02 03-Breathing Flute 88
DR10 -1.72 dB -15.58 dB 12:28 04-Singing Lesson 79
––––––––––––––––––––––––––––––––––––––––

Number of tracks: 4
Official DR value: DR10

Samplerate: 48000 Hz
Channels: 2
Bits per sample: 24
Bitrate: 1723 kbps
Codec: FLAC
================================================================================


Thanks to the Original customer!