Tags
Language
Tags
March 2024
Su Mo Tu We Th Fr Sa
25 26 27 28 29 1 2
3 4 5 6 7 8 9
10 11 12 13 14 15 16
17 18 19 20 21 22 23
24 25 26 27 28 29 30
31 1 2 3 4 5 6
Attention❗ To save your time, in order to download anything on this site, you must be registered 👉 HERE. If you do not have a registration yet, it is better to do it right away. ✌

( • )( • ) ( ͡⚆ ͜ʖ ͡⚆ ) (‿ˠ‿)
SpicyMags.xyz

Art Deco Trio, Iain Farrington, Kyle Horch, Peter Sparks - Gershwinicity (2021) [Official Digital Download 24/88]

Posted By: delpotro
Art Deco Trio, Iain Farrington, Kyle Horch, Peter Sparks - Gershwinicity (2021) [Official Digital Download 24/88]

Art Deco Trio, Iain Farrington, Kyle Horch, Peter Sparks - Gershwinicity (2021)
FLAC (tracks) 24-bit/88,2 kHz | Front Cover & Digital Booklet | Time - 71:00 minutes | 1,01 GB
Classical, Jazz | Label: SOMM Recordings, Official Digital Download

SOMM RECORDINGS is delighted to announce the debut recording of composer-pianist Iain Farrington’s Art Deco Trio, featuring 15 new instrumental arrangements blending classical and jazz influences of songs by George Gershwin.

In 2012, Farrington played piano in the London Olympic Games’ opening ceremony in a comic performance of Chariots of Fire with Rowan Atkinson (as Mr. Bean) and the LSO conducted by Sir Simon Rattle. His Beethoveniana – a thrilling distillation of Beethoven’s nine symphonies into a seven-minute piece for 323 BBC orchestra musicians, the BBC Singers and two dancers – was a highlight of the locked-down 2020 BBC Proms.

Taking its name from the defining style of the Gershwin era, the Art Deco Trio – Peter Sparks (clarinet), Kyle Horch (alto and soprano saxophones) and Farrington (piano) – “mixes elegance and clean lines with the exuberance and bold colours” of its distinctive signature.

The disc takes its title from Farrington’s “fantasia” on five Gershwin standards stamped through with infectious rhythmic energy and the most memorable of melodies. First heard in shorter form at the 2018 BBC Proms, Gershwinicity is a dazzling celebration of one the 20th century’s most popular songwriters.

The melody-filled material ranges from early hits such as I’ll Build a Stairway to Paradise and The Man I Love to the late, lasting classics They All Laughed and Our Love is Here to Stay.

Gershwin’s stage masterpiece Porgy and Bess is represented by arrangements of Summertime and It Ain’t Necessarily So, alongside Broadway favourites (The Man I Love, I Got Rhythm) and rarities (Fidgety Feet, I’ve Got a Crush on You).

Iain Farrington’s arrangements of Holst’s Ode to Death – “the pick of the piece” (BBC Radio 3’s Record Review) – and Fauré’s Requiem were heard on In Remembrance (SOMMCD 0187). Lauded by the British Music Society as “a very fine performance and recording in every respect”, MusicWeb International declared it “an album that will have enduring value into the future”.

Tracklist:
1. Art Deco Trio – I Got Rhythm (From "Girl Crazy") (02:02)
2. Art Deco Trio – They All Laughed (From "Shall We Dance") (03:57)
3. Peter Sparks & Iain Farrington – The Man I Love (From "Strike Up the Band") (03:31)
4. Art Deco Trio – Nice Work If You Can Get It (From "a Damsel in Distress") (03:46)
5. Kyle Horch & Iain Farrington – Summertime (From "Porgy and Bess") (07:56)
6. Art Deco Trio – They Can't Take That Away From Me (From "Shall We Dance") (04:51)
7. Iain Farrington – Fidgety Feet (From "Oh, Kay!") (03:20)
8. Kyle Horch & Iain Farrington – Love Is Here to Stay (From "the Goldwyn Follies") (05:06)
9. Art Deco Trio – I'll Build a Stairway to Paradise (From "George White's Scandals") (04:07)
10. Iain Farrington – Do It Again (From "the French Doll") (03:51)
11. Kyle Horch & Iain Farrington – It Ain't Necessarily So (From "Porgy and Bess") (02:42)
12. Peter Sparks & Iain Farrington – Someone to Watch Over Me (From "Oh, Kay!") (04:52)
13. Kyle Horch & Iain Farrington – I've Got a Crush on You (From "Treasure Girl" & "Strike Up the Band") (03:45)
14. Peter Sparks & Iain Farrington – But Not for Me (From "Girl Crazy") (02:49)
15. Art Deco Trio – Gershwinicity (After Gershwin) (14:18)

foobar2000 1.4.1 / Dynamic Range Meter 1.1.1
log date: 2021-04-13 16:26:27

––––––––––––––––––––––––––––––––––––––––
Analyzed: Art Deco Trio / Gershwinicity
––––––––––––––––––––––––––––––––––––––––

DR Peak RMS Duration Track
––––––––––––––––––––––––––––––––––––––––
DR12 -0.17 dB -17.48 dB 2:03 01-I Got Rhythm (From "Girl Crazy")
DR12 -1.94 dB -17.52 dB 3:57 02-They All Laughed (From "Shall We Dance")
DR12 -8.29 dB -26.46 dB 3:31 03-The Man I Love (From "Strike Up the Band")
DR12 -0.02 dB -16.87 dB 3:47 04-Nice Work If You Can Get It (From "A Damsel in Distress")
DR14 -1.31 dB -22.75 dB 7:56 05-Summertime (From "Porgy and Bess")
DR12 -6.08 dB -23.28 dB 4:52 06-They Can't Take That Away From Me (From "Shall We Dance")
DR13 -3.01 dB -22.17 dB 3:21 07-Fidgety Feet (From "Oh, Kay!")
DR11 -5.98 dB -21.51 dB 5:07 08-Love Is Here to Stay (From "The Goldwyn Follies")
DR12 -0.79 dB -15.95 dB 4:07 09-I'll Build a Stairway to Paradise (From "George White's Scandals")
DR13 -2.25 dB -21.45 dB 3:51 10-Do It Again (From "The French Doll")
DR13 -0.05 dB -18.40 dB 2:42 11-It Ain't Necessarily So (From "Porgy and Bess")
DR14 -3.76 dB -23.68 dB 4:53 12-Someone to Watch Over Me (From "Oh, Kay!")
DR12 -4.08 dB -22.53 dB 3:46 13-I've Got a Crush on You (From "Treasure Girl" & "Strike Up the Band")
DR13 -9.50 dB -28.16 dB 2:49 14-But Not for Me (From "Girl Crazy")
DR14 -0.18 dB -18.60 dB 14:19 15-Gershwinicity (After Gershwin)
––––––––––––––––––––––––––––––––––––––––

Number of tracks: 15
Official DR value: DR13

Samplerate: 88200 Hz
Channels: 2
Bits per sample: 24
Bitrate: 2103 kbps
Codec: FLAC
================================================================================


Thanks to the Original customer!