Asaf Avidan - Anagnorisis (Vinyl LP) (2020) [24bit/96kHz]

Posted By: delpotro
Asaf Avidan - Anagnorisis (Vinyl LP) (2020) [24bit/96kHz]

Asaf Avidan - Anagnorisis (Vinyl LP) (2020)
Vinyl Rip | FLAC (tracks) 24-bit/96 kHz | Front Cover | Time - 37:33 minutes | 721 MB
Soul, Pop, Indie | Label: Telmavar Records

Asaf Avidan has shared his new album Anagnorisis today, a ten-song collection recorded earlier this year in Italy during the early stages of the COVID-19 pandemic. Recording in relative isolation, Asaf uses the album's ten songs to tap into the complex, inherently chaotic and ever-changing nature of what it means to live in our current moment. In a career that has seen him hit #1 in 14 countries across Europe, headline the continent's biggest festivals and sell out its biggest concert halls - Anagnorisis marks what is perhaps Avidan's most complete statement as an artist to date. Named after the Greek literary device in which a character experiences a sudden and complete moment of revelation, Anagnorisis comes to the conclusion that nothing is truly that simple or that easy.

"The voice and the poetry of Asaf Avidan fascinates me," says NPR Music's Bob Boilen about Anagnorisis. "He sings like nobody else." Boilen's NPR Music colleague Stephen Thompson has added that the new record "grabs your attention the second you hear it."

Tracklist:
A1 – Lost Horse (03:52)
A2 – 900 Days (03:29)
A3 – Earth Odyssey (04:27)
A4 – No Words (03:55)
A5 – Anagnorisis (03:31)
B1 – Rock Of Lazarus (04:00)
B2 – Wildfire (03:45)
B3 – Indifferent Skies (03:31)
B4 – Darkness Song (03:59)
B5 – I See Her, Don´t Be Afraid (03:13)

foobar2000 1.4.1 / Dynamic Range Meter 1.1.1
log date: 2020-12-02 18:17:57

––––––––––––––––––––––––––––––––––––––––
Analyzed: Asaf Avidan / Anagnorisis
––––––––––––––––––––––––––––––––––––––––

DR Peak RMS Duration Track
––––––––––––––––––––––––––––––––––––––––
DR12 0.00 dB -15.35 dB 4:05 01-Lost Horse
DR12 0.00 dB -14.57 dB 3:25 02-900 Days
DR12 -0.45 dB -15.62 dB 4:24 03-Earth Odyssey
DR13 -0.41 dB -17.62 dB 3:53 04-No Words
DR13 -1.22 dB -17.52 dB 3:30 05-Anagnorisis
DR11 -0.29 dB -14.68 dB 4:00 06-Rock Of Lazarus
DR13 -0.06 dB -15.91 dB 3:44 07-Wildfire
DR10 0.00 dB -13.11 dB 3:28 08-Indifferent Skies
DR12 -2.80 dB -19.97 dB 3:51 09-Darkness Song
DR9 -3.78 dB -17.49 dB 3:13 10-I See Her, Don´t Be Afraid
––––––––––––––––––––––––––––––––––––––––

Number of tracks: 10
Official DR value: DR12

Samplerate: 96000 Hz
Channels: 2
Bits per sample: 24
Bitrate: 2569 kbps
Codec: FLAC
================================================================================


Hardware:
Turntable Rega Planar 6 with Exakt 2
Preamp Pro-Ject Phono Box DS2 USB

Software:
VinylStudio V11.07

Thanks to the Original customer!