Tags
Language
Tags

Atavist - III: Absolution (2020) [Official Digital Download]

Posted By: delpotro
Atavist - III: Absolution (2020) [Official Digital Download]

Atavist - III: Absolution (2020)
FLAC (tracks) 24-bit/44,1 kHz | Front Cover | Time - 58:14 minutes | 621 MB
Sludge, Drone Metal | Label: Spinefarm Records, Official Digital Download

Reformed in 2016/17 after a 10 year hiatus, the UK's most crushing Death/Doom stalwarts, Atavist, triumphantly return in 2020 with a brand new studio album on Friday June 19th. The album, titled 'III: Absolution' is the third full length album from the band and comes almost 13 years after their highly acclaimed 2007 album, II: Ruined (Profound Lore Records/Invada Records).

III: Absolution comprises of four mammoth, new tracks of heavy, emotive and atmospheric Death/Doom Metal reminiscent of the band's early history, but also incorporating the progression of a band who have grown as musicians and writers, over the last decade; in a variety of other extreme metal projects.

Tracklist:
1. Loss (16:31)
2. Struggle (14:23)
3. Self-Realisation (09:38)
4. Absolution (17:43)

foobar2000 1.4.1 / Dynamic Range Meter 1.1.1
log date: 2021-03-06 09:38:38

––––––––––––––––––––––––––––––––––––––––
Analyzed: Atavist / III: Absolution
––––––––––––––––––––––––––––––––––––––––

DR Peak RMS Duration Track
––––––––––––––––––––––––––––––––––––––––
DR10 -0.21 dB -12.83 dB 16:31 01-Loss
DR9 -0.21 dB -10.65 dB 14:23 02-Struggle
DR9 -0.21 dB -11.22 dB 9:38 03-Self-Realisation
DR10 -0.21 dB -12.31 dB 17:43 04-Absolution
––––––––––––––––––––––––––––––––––––––––

Number of tracks: 4
Official DR value: DR10

Samplerate: 44100 Hz
Channels: 2
Bits per sample: 24
Bitrate: 1420 kbps
Codec: FLAC
================================================================================


Thanks to the Original customer!