Billy Strings - 2021-05-23 Louisville, KY (2021) [Official Digital Download 24/48]

Posted By: delpotro
Billy Strings - 2021-05-23 Louisville, KY (2021) [Official Digital Download 24/48]

Billy Strings - 2021-05-23 Louisville, KY (2021)
FLAC (tracks) 24-bit/48 kHz | Front Cover | Time - 131:58 minutes | 1,36 GB
Bluegrass | Label: nugs net, Official Digital Download

Billy Strings live on the lawn at Waterfront Park, Louisville, KY, 23 May 2021.

Tracklist:
Disc 1
01. tuning
02. Fire On My Tongue
03. Morning Light
04. Slow Train
05. This Old World
06. Thirst Mutilator
07. I Know You're Married
08. Doin' My Time
09. Back On The Train
10. Bird Song
11. Know It All
12. tuning
13. Secrets
14. Running The Route

Disc 2
01. Running
02. Help On The Way
03. Tangled Up In Blue
04. Slipknot!
05. All Fall Down
06. Franklin's Tower
07. Meet Me at the Creek
08. Time To Move On
09. Little Maggie

foobar2000 1.4.1 / Dynamic Range Meter 1.1.1
log date: 2021-05-29 18:50:10

––––––––––––––––––––––––––––––––––––––––
Analyzed: Billy Strings / 2021/05/23 Louisville, KY
––––––––––––––––––––––––––––––––––––––––

DR Peak RMS Duration Track
––––––––––––––––––––––––––––––––––––––––
DR13 -0.10 dB -21.75 dB 1:28 01-tuning
DR9 -0.10 dB -11.97 dB 3:14 02-Fire On My Tongue
DR11 -0.10 dB -15.09 dB 5:36 03-Morning Light
DR10 -0.10 dB -11.26 dB 4:22 04-Slow Train
DR10 -0.10 dB -11.42 dB 4:23 05-This Old World
DR12 -0.10 dB -14.57 dB 5:33 06-Thirst Mutilator
DR10 -0.10 dB -12.73 dB 3:55 07-I Know You're Married
DR10 -0.10 dB -12.24 dB 7:46 08-Doin' My Time
DR8 -0.10 dB -10.80 dB 6:36 09-Back On The Train
DR9 -0.10 dB -12.79 dB 13:07 10-Bird Song
DR9 -0.10 dB -10.33 dB 3:41 11-Know It All
DR20 -0.10 dB -34.60 dB 1:45 12-tuning
DR9 -0.10 dB -11.19 dB 5:08 13-Secrets
DR8 -0.10 dB -10.16 dB 7:03 14-Running The Route
DR8 -0.10 dB -10.34 dB 3:50 01-Running
DR9 -0.10 dB -11.49 dB 3:31 02-Help On The Way
DR8 -0.10 dB -9.80 dB 6:16 03-Tangled Up In Blue
DR7 -0.10 dB -8.49 dB 0:55 04-Slipknot!
DR7 -0.10 dB -9.44 dB 10:03 05-All Fall Down
DR8 -0.10 dB -10.75 dB 7:06 06-Franklin's Tower
DR7 -0.10 dB -9.16 dB 18:15 07-Meet Me at the Creek
DR11 -0.10 dB -12.99 dB 3:38 08-Time To Move On
DR7 -0.10 dB -8.55 dB 4:47 09-Little Maggie
––––––––––––––––––––––––––––––––––––––––

Number of tracks: 23
Official DR value: DR10

Samplerate: 48000 Hz
Channels: 2
Bits per sample: 24
Bitrate: 1552 kbps
Codec: FLAC
================================================================================


Thanks to the Original customer!