Billy Strings - 2020-02-21 Steamboat Springs, CO (2020) [Official Digital Download 24/48]

Posted By: delpotro
Billy Strings - 2020-02-21 Steamboat Springs, CO (2020) [Official Digital Download 24/48]

Billy Strings - 2020-02-21 Steamboat Springs, CO (2020)
FLAC (tracks) 24-bit/48 kHz | Front Cover | Time - 102:55 minutes | 1,06 GB
Bluegrass | Label: nugs net, Official Digital Download

Billy Strings live at Steamboat Springs, 21 February 2020.

Tracklist:
Disc 1
01. Intro
02. Steamboat Whistle Blues
03. Turmoil and Tinfoil
04. Ten Degrees And Colder
05. Slow Train
06. Cheap Tequilla
07. Highway Hypnosis
08. Slipstream
09. Enough To Leave
10. Red Rocking Chair
11. Home
12. Away From The Mire

Disc 2
01. Long Forgotten Dream
02. Ernest T. Grass
03. How Mountain Girls Can Love
04. Train Train

foobar2000 1.4.1 / Dynamic Range Meter 1.1.1
log date: 2021-05-29 18:47:30

––––––––––––––––––––––––––––––––––––––––
Analyzed: Billy Strings / 2020/02/21 Streamboat, CO
––––––––––––––––––––––––––––––––––––––––

DR Peak RMS Duration Track
––––––––––––––––––––––––––––––––––––––––
DR10 -0.02 dB -14.54 dB 2:13 01-Intro
DR11 -0.12 dB -15.14 dB 4:10 02-Steamboat Whistle Blues
DR11 -0.09 dB -14.11 dB 12:07 03-Turmoil and Tinfoil
DR12 -0.09 dB -16.10 dB 3:01 04-Ten Degrees And Colder
DR13 -0.11 dB -15.72 dB 4:47 05-Slow Train
DR13 -0.08 dB -17.26 dB 5:00 06-Cheap Tequilla
DR13 -0.07 dB -16.62 dB 10:46 07-Highway Hypnosis
DR13 -0.12 dB -17.41 dB 4:20 08-Slipstream
DR14 -0.10 dB -16.82 dB 6:35 09-Enough To Leave
DR12 -0.18 dB -16.07 dB 6:37 10-Red Rocking Chair
DR12 -0.10 dB -17.34 dB 8:47 11-Home
DR13 -0.09 dB -16.33 dB 9:41 12-Away From The Mire
DR14 0.00 dB -16.37 dB 5:13 01-Long Forgotten Dream
DR13 -0.15 dB -16.75 dB 9:00 02-Ernest T. Grass
DR12 -0.10 dB -16.64 dB 4:43 03-How Mountain Girls Can Love
DR12 0.00 dB -15.07 dB 5:56 04-Train Train
––––––––––––––––––––––––––––––––––––––––

Number of tracks: 16
Official DR value: DR12

Samplerate: 48000 Hz
Channels: 2
Bits per sample: 24
Bitrate: 1499 kbps
Codec: FLAC
================================================================================


Thanks to the Original customer!