Billy Strings - 2020-02-23 Steamboat Springs, CO (2020) [Official Digital Download 24/48]

Posted By: delpotro
Billy Strings - 2020-02-23 Steamboat Springs, CO (2020) [Official Digital Download 24/48]

Billy Strings - 2020-02-23 Steamboat Springs, CO (2020)
FLAC (tracks) 24-bit/48 kHz | Front Cover | Time - 90:50 minutes | 954 MB
Bluegrass | Label: nugs net, Official Digital Download

Billy Strings live at Steamboat Springs, 23 February 2020.

Tracklist:
Disc 1
01. Intro
02. Taking Water
03. Dust In A Baggie
04. Pyramid Country
05. Little Maggie
06. While I'm Waiting Here
07. Cold On Your Shoulder
08. On The Line
09. John Deere Tractor
10. Riding Out The Winter
11. Doing Things Right
12. Everything's The Same
13. Lonesome Moonlight Waltz
14. Meet Me at the Creek
15. Ride Me High

Disc 2
01. Meet Me at the Creek
02. Ole Slewfoot

foobar2000 1.4.1 / Dynamic Range Meter 1.1.1
log date: 2021-05-29 18:48:05

––––––––––––––––––––––––––––––––––––––––
Analyzed: Billy Strings / 2020/02/23 Steamboat Springs, CO
––––––––––––––––––––––––––––––––––––––––

DR Peak RMS Duration Track
––––––––––––––––––––––––––––––––––––––––
DR11 -0.10 dB -15.91 dB 1:27 01-Intro
DR12 -0.10 dB -16.21 dB 4:54 02-Taking Water
DR12 -0.10 dB -15.27 dB 4:18 03-Dust In A Baggie
DR12 -0.10 dB -15.85 dB 9:06 04-Pyramid Country
DR12 -0.10 dB -14.65 dB 5:05 05-Little Maggie
DR14 -0.10 dB -17.87 dB 7:14 06-While I'm Waiting Here
DR13 -0.10 dB -15.31 dB 2:37 07-Cold On Your Shoulder
DR13 -0.10 dB -15.62 dB 5:05 08-On The Line
DR13 -0.10 dB -18.05 dB 5:10 09-John Deere Tractor
DR13 -0.10 dB -16.69 dB 4:17 10-Riding Out The Winter
DR13 -0.10 dB -15.44 dB 7:21 11-Doing Things Right
DR12 -0.10 dB -15.57 dB 3:41 12-Everything's The Same
DR16 -0.10 dB -20.25 dB 4:13 13-Lonesome Moonlight Waltz
DR13 -0.10 dB -16.31 dB 11:02 14-Meet Me at the Creek
DR11 -0.10 dB -14.65 dB 4:21 15-Ride Me High
DR12 -0.10 dB -15.39 dB 6:49 01-Meet Me at the Creek
DR13 -0.10 dB -16.25 dB 4:10 02-Ole Slewfoot
––––––––––––––––––––––––––––––––––––––––

Number of tracks: 17
Official DR value: DR13

Samplerate: 48000 Hz
Channels: 2
Bits per sample: 24
Bitrate: 1493 kbps
Codec: FLAC
================================================================================


Thanks to the Original customer!