Blake Shelton - Body Language (2021) [Official Digital Download 24/48]

Posted By: delpotro
Blake Shelton - Body Language (2021) [Official Digital Download 24/48]

Blake Shelton - Body Language (2021)
FLAC (tracks) 24-bit/48 kHz | Front Cover | Time - 38:21 minutes | 496 MB
Country Rock | Label: Ten Point Productions, Official Digital Download

The superstar is set to release Body Language, his first full-length studio album in three and a half years, on May 21. The project features 12 tracks, including the chart-topping “Happy Anywhere” and his current hit single, “Minimum Wage.”

“We’ve been working on this album on and off for two years now, and I’m very proud of what we have put together,” Shelton shares. “We certainly had some unique challenges with the pandemic, but we also had a lot of fun. We explored new sounds while making sure to get in some classic country. I’m also thrilled to have my buddies The Swon Brothers featured on the title track as both co-writers and vocalists. Can’t wait for y’all to hear it!”

Tracklist:
1. Minimum Wage (03:48)
2. Body Language (feat. The Swon Brothers) (02:49)
3. Happy Anywhere (feat. Gwen Stefani) (02:50)
4. Now I Don't (03:50)
5. Monday Mornin' Missin' You (03:40)
6. Corn (02:59)
7. Makin' It Up As You Go (02:41)
8. Whatcha Doin' Tomorrow (02:41)
9. The Girl Can't Help It (02:44)
10. The Flow (02:55)
11. Neon Time (03:45)
12. Bible Verses (03:36)

foobar2000 1.4.1 / Dynamic Range Meter 1.1.1
log date: 2021-05-21 14:23:56

––––––––––––––––––––––––––––––––––––––––
Analyzed: Blake Shelton / Body Language
––––––––––––––––––––––––––––––––––––––––

DR Peak RMS Duration Track
––––––––––––––––––––––––––––––––––––––––
DR5 -0.20 dB -6.23 dB 3:48 01-Minimum Wage
DR5 -0.20 dB -7.13 dB 2:50 02-Body Language (feat. The Swon Brothers)
DR7 -0.20 dB -8.06 dB 2:50 03-Happy Anywhere (feat. Gwen Stefani)
DR6 -0.20 dB -7.41 dB 3:50 04-Now I Don't
DR6 -0.20 dB -6.79 dB 3:40 05-Monday Mornin' Missin' You
DR6 -0.20 dB -7.49 dB 2:59 06-Corn
DR6 -0.20 dB -7.79 dB 2:42 07-Makin' It Up As You Go
DR6 -0.20 dB -7.93 dB 2:41 08-Whatcha Doin' Tomorrow
DR6 -0.20 dB -7.15 dB 2:44 09-The Girl Can't Help It
DR6 -0.20 dB -7.03 dB 2:55 10-The Flow
DR5 -0.20 dB -6.84 dB 3:45 11-Neon Time
DR7 -0.20 dB -9.55 dB 3:37 12-Bible Verses
––––––––––––––––––––––––––––––––––––––––

Number of tracks: 12
Official DR value: DR6

Samplerate: 48000 Hz
Channels: 2
Bits per sample: 24
Bitrate: 1618 kbps
Codec: FLAC
================================================================================


Thanks to the Original customer!