Tags
Language
Tags
April 2024
Su Mo Tu We Th Fr Sa
31 1 2 3 4 5 6
7 8 9 10 11 12 13
14 15 16 17 18 19 20
21 22 23 24 25 26 27
28 29 30 1 2 3 4

Bobby Keys - Lover's Rockin: The Lost Album (2023) [Official Digital Download]

Posted By: delpotro
Bobby Keys - Lover's Rockin: The Lost Album (2023) [Official Digital Download]

Bobby Keys - Lover's Rockin: The Lost Album (2023)
FLAC (tracks) 24-bit/44,1 kHz | Front Cover | Time - 45:41 minutes | 539 MB
Jazz Fusion | Label: Le Chant Du Monde, Official Digital Download

Bobby Keys was an American saxophonist, born December 18, 1943, in Slaton, Lubbock County, Texas, and died December 2, 2014, in Franklin (Tennessee). Not knowing how to read music, he learned to play the saxophone on his own. At the age of fourteen, he met Buddy Holly - also from Lubbock - and saxophonist King Curtis. During his teenage years, he accompanied singer Bobby Vee on the Caravan of Stars tour, organized by television host, Dick Clark.

In 1964, he discovered the Rolling Stones during a concert in San Antonio. With trumpeter Jim Price, he was one of the musicians recruited for their 1969 tour. He took part in the recording of several Stones albums, including Let It Bleed in 1969, Sticky Fingers in 1971 and Exile on Main Street in 1972. The famous saxophone chorus on the track, ‘Brown Sugar’, is considered his most significant contribution. Born the same day as Keith Richards, he became one of his close friends, but his excesses led to his dismissal in 1973. During the 1980s, he returned on tour with the Stones and performed regularly with them until his health prevented it.

Whilst most of his career was centred around the Rolling Stones, Keys also played for many artists, including The Who, BB King, John Lennon, Eric Clapton, Johnny Hallyday (album ‘Insolitudes’), and Barbra Streisand. He participated in the recording of the albums ‘Mad Dogs and Englishmen’ by Joe Cocker, ‘All Things Must Pass’ by George Harrison and ‘Cosmic Wheels’ by Donovan.

In 1972, Warner Bros. published Bobby Keys’ only solo album. The record brought together two ex-Beatles - George Harrison and Ringo Starr - and friends including Jack Bruce, trumpeter Jim Price and pianist Nicky Hopkins.

In the middle of the Seventies the Stones - now living and working in Jamaica as tax exiles - recorded their album Goat's Head Soup. It was during this time that Bobby, Ronnie Wood Steve Crooper and Nicky Hopkins, under the production of Clive Hunt, recorded this album, which took years to make. Apparently, Mick Jagger was supposed to sing on a few of the songs which never happened. This record of rare artistic quality has remained buried in the Clive Hunt archives for all these years. In 2023 it finally sees the light of day and will delight the ears of the public.

Tracklist:
01. Suzie
02. Man In The Street
03. Dock Of The Bay
04. Honky Tonk
05. KC Song
06. 99½
07. Johnny You Too Bad
08. Lover's Rockin
09. Soul Serenade
10. Only The Strong

foobar2000 1.4.1 / Dynamic Range Meter 1.1.1
log date: 2023-11-28 23:28:23

––––––––––––––––––––––––––––––––––––––––
Analyzed: Bobby Keys / Lover's Rockin - The Lost Album
––––––––––––––––––––––––––––––––––––––––

DR Peak RMS Duration Track
––––––––––––––––––––––––––––––––––––––––
DR7 -0.10 dB -8.79 dB 3:40 01-Suzie
DR7 -0.10 dB -8.81 dB 4:33 02-Man In The Street
DR8 -0.10 dB -9.50 dB 5:07 03-Dock Of The Bay
DR8 -0.10 dB -10.11 dB 4:25 04-Honky Tonk
DR8 -0.10 dB -9.16 dB 4:11 05-KC Song
DR7 -0.10 dB -9.09 dB 4:31 06-99½
DR8 -0.10 dB -9.39 dB 4:07 07-Johnny You Too Bad
DR9 -0.10 dB -10.38 dB 4:31 08-Lover's Rockin
DR9 -0.35 dB -11.26 dB 6:35 09-Soul Serenade
DR7 -0.10 dB -8.80 dB 4:02 10-Only The Strong
––––––––––––––––––––––––––––––––––––––––

Number of tracks: 10
Official DR value: DR8

Samplerate: 44100 Hz
Channels: 2
Bits per sample: 24
Bitrate: 1620 kbps
Codec: FLAC
================================================================================


Thanks to the Original customer!