Tags
Language
Tags

Boris & Merzbow - 2R0I2P0 (2020) [Official Digital Download 24/48]

Posted By: delpotro
Boris & Merzbow - 2R0I2P0 (2020) [Official Digital Download 24/48]

Boris & Merzbow - 2R0I2P0 (2020)
FLAC (tracks) 24-bit/48 kHz | Front Cover | Time - 77:58 minutes | 1,04 GB
Avant-Garde Rock, Experimental Rock, Noise Rock | Label: Relapse Records, Official Digital Download

Relapse Records presents 2R0I2P0, the brand new collaborative album from BORIS and MERZBOW. The 10 track album showcases every bit of the excitement and pulse-pounding rock and metal heard throughout the inimitable, expansive BORIS catalog, as it meets the signature harsh noise and soundscapes of the equally prolific MERZBOW.

Tracklist:
1. Away from You (07:35)
2. To the Beach (07:10)
3. Coma (03:14)
4. Love (06:43)
5. Absolutego (04:31)
6. Journey (07:45)
7. Uzume (06:51)
8. Evol (13:05)
9. Boris (08:50)
10. Shadow of Skull (12:09)

foobar2000 1.4.1 / Dynamic Range Meter 1.1.1
log date: 2020-12-11 13:11:16

––––––––––––––––––––––––––––––––––––––––
Analyzed: Boris & Merzbow / 2R0I2P0
––––––––––––––––––––––––––––––––––––––––

DR Peak RMS Duration Track
––––––––––––––––––––––––––––––––––––––––
DR9 -0.05 dB -11.73 dB 7:35 01-Away from You
DR4 -0.05 dB -6.76 dB 7:11 02-To the Beach
DR7 -0.05 dB -8.73 dB 3:14 03-Coma
DR6 -0.05 dB -7.50 dB 6:43 04-Love
DR4 -0.05 dB -5.72 dB 4:32 05-Absolutego
DR7 -0.05 dB -9.22 dB 7:46 06-Journey
DR4 -0.05 dB -6.27 dB 6:52 07-Uzume
DR4 -0.05 dB -5.90 dB 13:05 08-Evol
DR5 -0.05 dB -7.27 dB 8:51 09-Boris
DR3 -0.05 dB -5.14 dB 12:09 10-Shadow of Skull
––––––––––––––––––––––––––––––––––––––––

Number of tracks: 10
Official DR value: DR5

Samplerate: 48000 Hz
Channels: 2
Bits per sample: 24
Bitrate: 1895 kbps
Codec: FLAC
================================================================================


Thanks to the Original customer!