Tags
Language
Tags

bvdub - Hard Times, Hard Hearts (2021) [Official Digital Download]

Posted By: delpotro
bvdub - Hard Times, Hard Hearts (2021) [Official Digital Download]

bvdub - Hard Times, Hard Hearts (2021)
FLAC (tracks) 24-bit/44,1 kHz | Front Cover | Time - 155:07 minutes | 1,44 GB
Electronic, Ambient | Label: AY, Official Digital Download

‘Hard Times, Hard Hearts’ sees American electronic music producer Brock Van Wey - better known as the prolific Bvdub - present an ambitious double album. The first half, titled ‘Complexity’, somehow manages to reconcile a melancholy atmosphere with frenetic yet blissful beats, while the second collection, ‘Simplicity’, is entirely percussion-free.

Tracklist:
1. Under Blue Waters (10:30)
2. On Petrified Skies (09:16)
3. Over Invisible Walls (19:01)
4. Inside Infinite Machines (09:25)
5. Above Broken Hearts (09:13)
6. Across Ocean Floors (09:25)
7. Beneath Frozen Fires (09:58)
8. Cold Gazes (09:51)
9. Empty Memories (10:01)
10. Hollow Words (09:53)
11. Aimless Days (10:07)
12. Fleeting Beauties (09:46)
13. Heavy Elevations (09:10)
14. Slow Poses (09:37)
15. Hard Times (03:57)
16. Hard Hearts (05:58)

foobar2000 1.4.1 / Dynamic Range Meter 1.1.1
log date: 2021-07-27 23:15:44

––––––––––––––––––––––––––––––––––––––––
Analyzed: bvdub / Hard Times, Hard Hearts
––––––––––––––––––––––––––––––––––––––––

DR Peak RMS Duration Track
––––––––––––––––––––––––––––––––––––––––
DR4 -0.20 dB -7.58 dB 10:30 01-Under Blue Waters
DR5 -0.20 dB -8.24 dB 9:16 02-On Petrified Skies
DR5 -0.20 dB -8.77 dB 19:01 03-Over Invisible Walls
DR4 -0.20 dB -6.89 dB 9:25 04-Inside Infinite Machines
DR4 -0.20 dB -7.23 dB 9:13 05-Above Broken Hearts
DR6 -0.20 dB -10.24 dB 9:25 06-Across Ocean Floors
DR5 -0.20 dB -8.03 dB 9:58 07-Beneath Frozen Fires
DR5 -1.70 dB -9.69 dB 9:51 08-Cold Gazes
DR6 -1.70 dB -10.60 dB 10:01 09-Empty Memories
DR5 -1.70 dB -9.62 dB 9:53 10-Hollow Words
DR7 -1.70 dB -12.04 dB 10:07 11-Aimless Days
DR5 -1.70 dB -10.17 dB 9:46 12-Fleeting Beauties
DR4 -1.70 dB -7.93 dB 9:10 13-Heavy Elevations
DR5 -1.70 dB -9.45 dB 9:37 14-Slow Poses
DR5 -1.70 dB -9.96 dB 3:57 15-Hard Times
DR6 -1.70 dB -9.22 dB 5:58 16-Hard Hearts
––––––––––––––––––––––––––––––––––––––––

Number of tracks: 16
Official DR value: DR5

Samplerate: 44100 Hz
Channels: 2
Bits per sample: 24
Bitrate: 1206 kbps
Codec: FLAC
================================================================================


Thanks to the Original customer!