Tags
Language
Tags

bvdub - Measures of a Greater Mercy (2021) [Official Digital Download]

Posted By: delpotro
bvdub - Measures of a Greater Mercy (2021) [Official Digital Download]

bvdub - Measures of a Greater Mercy (2021)
FLAC (tracks) 24-bit/44,1 kHz | Front Cover | Time - 78:42 minutes | 783 MB
Electronic, Ambient, Deep House | Label: bvdub, Official Digital Download

The last album I recorded while still living in China, before I took a very long sabbatical from music and the world as I attempted to grapple with an upcoming transformation of my life and world I'm still failing miserably at even approaching handling in a reasonably competent manner.

Tracklist:
1. Your Colors at Night (11:25)
2. Fall in Autumn (12:47)
3. Fear of Heights (10:25)
4. You Were Never Her (09:37)
5. Measures of a Greater Mercy (12:15)
6. What if I Had Asked You to Stay (11:25)
7. Symmetry in Separation (10:49)

foobar2000 1.4.1 / Dynamic Range Meter 1.1.1
log date: 2021-11-25 16:30:04

––––––––––––––––––––––––––––––––––––––––
Analyzed: bvdub | Brock Van Wey / Measures of a Greater Mercy
––––––––––––––––––––––––––––––––––––––––

DR Peak RMS Duration Track
––––––––––––––––––––––––––––––––––––––––
DR5 -0.20 dB -8.14 dB 11:25 01-Your Colors at Night
DR5 -0.20 dB -7.15 dB 12:47 02-Fall in Autumn
DR4 -0.20 dB -7.48 dB 10:25 03-Fear of Heights
DR5 -0.20 dB -8.04 dB 9:37 04-You Were Never Her
DR5 -0.20 dB -7.58 dB 12:15 05-Measures of a Greater Mercy
DR5 -0.20 dB -9.57 dB 11:25 06-What if I Had Asked You to Stay
DR5 -0.20 dB -9.27 dB 10:49 07-Symmetry in Separation
––––––––––––––––––––––––––––––––––––––––

Number of tracks: 7
Official DR value: DR5

Samplerate: 44100 Hz
Channels: 2
Bits per sample: 24
Bitrate: 1360 kbps
Codec: FLAC
================================================================================


Thanks to the Original customer!