Can - Live In Stuttgart 1975 (2021) [Official Digital Download 24/96]

Posted By: El Misha
Can - Live In Stuttgart 1975 (2021) [Official Digital Download 24/96]

Can - Live In Stuttgart 1975 (2021)
FLAC (tracks) 24-bit/96.0 kHz | Time - 01:30:02 | 1.79 GB
Studio Master, Official Digital Download | Artwork: Front cover

Can's experimentation and willingness to take unprecedented risks touched every aspect of their music. The Krautrock legends' innovative approach to studio albums produced some of the most exciting results of the entire era of rock music they existed in, but the foundation for their studio brilliance was in their otherworldly powers as a live entity. Live in Stuttgart 1975 captures some of this live magic, documenting the entirety of a 90-minute-long, fully improvised concert made up of five lengthy jams. For the most part, the performances are high-energy and intricate and the band sounds almost supernaturally communicative. Instead of taking turns soloing over sleepy blues-based vamps, Can swing between complex modes that they explore restlessly. Sometimes they'll break into what sounds like familiar material – a rhythm or a riff that starts to sound like something from Tago Mago – but these hints of structure never fully materialize. Throughout the set, Can is determined to go new places. The band had just recorded their sixth LP, Landed, which at that point combined both their most high-tech production and their most straightforward jam band material. Some of that excessive jam focus comes through on Stuttgart 1975. The cautious intro to "Zwei" (the album's five pieces are titled with German numerals) has the same lazy shuffle and prismatic guitar noodling as the Grateful Dead during their live sets. That mellowness lasts only a moment before taking one of many quick turns to wilder territory. There are some parallels to the ungrounded freeform of electric Miles Davis and Hendrix's raw live recordings, but there's also some integration of early synthesizers and a rhythmic presence that sounds like Can and Can alone. Whether locked into an airtight groove or exploring noisy chaos, the band moves as a singular organism that doesn't let up for a second. Their studio albums solidified Can's reputation as one of the most important and groundbreaking bands of their time, but Stuttgart 1975 exemplifies how that creative spirit translated to the stage, highlighting yet another side of Can's limitless ability.
© Fred Thomas /TiVo



Tracklist:

01. Stuttgart 75 Eins
02. Stuttgart 75 Zwei
03. Stuttgart 75 Drei
04. Stuttgart 75 Vier
05. Stuttgart 75 Fünf

foobar2000 1.4 / Dynamic Range Meter 1.1.1
log date: 2021-06-10 07:25:03

––––––––––––––––––––––––––––––––––––––––
Analyzed: Can / Live In Stuttgart 1975
––––––––––––––––––––––––––––––––––––––––

DR Peak RMS Duration Track
––––––––––––––––––––––––––––––––––––––––
DR9 -0.39 dB -11.93 dB 20:11 01-Eins
DR7 -0.41 dB -10.05 dB 14:00 02-Zwei
DR6 -0.39 dB -8.25 dB 35:58 03-Drei
DR6 -0.40 dB -8.25 dB 10:23 04-Vier
DR6 -0.39 dB -9.25 dB 9:32 05-Fünf
––––––––––––––––––––––––––––––––––––––––

Number of tracks: 5
Official DR value: DR7

Samplerate: 96000 Hz
Channels: 2
Bits per sample: 24
Bitrate: 2839 kbps
Codec: FLAC
================================================================================



Thanks to the Original customer!