Tags
Language
Tags

Carl Mayotte - Escale (2022) [Official Digital Download]

Posted By: delpotro
Carl Mayotte - Escale (2022) [Official Digital Download]

Carl Mayotte - Escale (2022)
FLAC (tracks) 24-bit/44,1 kHz | Front Cover | Time - 36:09 minutes | 360 MB
Contemporary Jazz | Label: Analekta, Official Digital Download

Bassist, composer and arranger, Carl Mayotte is recognized in the jazz world as an exceptional musician. With this third album, Escale, he presents a personal work, which he composed, interpreted and produced. An invitation to discover his universe.

An improvised Escale: For this album, Carl Mayotte has opted for a different approach from the one he used for the two previous ones, where he would polish each musical line at length during the writing stage. This time, the emphasis is on spontaneous composition and improvisation, for a more organic and personal touch. This liberating method is reflected in every step of the album’s production, from sound recording to photography, from composition to recording.

This stopover in Carl Mayotte’s universe takes the electric bass out of its traditional role of accompaniment and allows us to discover the great versatility of the instrument. Carl Mayotte puts his virtuosity at the service of the music through his melodic and subtle playing that leaves plenty of room for his collaborators. By taking the paths of jazz fusion and improvisation, he reinvents the genre with a beautiful modernity by his choice of varied instrumentation from the harmonica to the kanoun.

Young, gifted and virtuoso: Carl Mayotte started playing in bars in the Quebec City area at the age of 16. His music has taken him on trips to Quebec and France, and has allowed him to rub shoulders with a wide variety of styles, from Quebec singers like Bruno Pelletier to European big bands.

Equipped with a solid academic background – a bachelor’s degree from Laval University in jazz performance, and a master’s degree in jazz from McGill University – he embarked on directing and arranging, collaborating with artists like Chloé Sainte-Marie as well as a symphony orchestra and a choir. In 2019, his first album, Fantosme, was released, concocted with musician and UZEB alumnus Michel Cusson. It will be followed, two years later, by Pop de Ville Vol.1, an ode to jazz fusion and Japanese city pop.

Named Radio-Canada Jazz Revelation 2020-2021, he was nominated at the ADISQ Gala in the category Jazz Album of the Year.

Tracklist:
1. Dans les nuages (04:02)
2. Au milieu de nulle part (04:36)
3. Hiver (04:11)
4. Joyau du desert (02:31)
5. Didem (05:07)
6. Bozo (03:55)
7. Le renégat (03:34)
8. Rêverie (Bonne nuit Loulou) (03:32)
9. Trauma (04:39)

foobar2000 1.4.1 / Dynamic Range Meter 1.1.1
log date: 2022-05-22 17:53:18

––––––––––––––––––––––––––––––––––––––––
Analyzed: Carl Mayotte / Escale
––––––––––––––––––––––––––––––––––––––––

DR Peak RMS Duration Track
––––––––––––––––––––––––––––––––––––––––
DR7 -0.56 dB -10.46 dB 4:03 01-Dans les nuages
DR7 -0.56 dB -11.74 dB 4:36 02-Au milieu de nulle part
DR8 -0.56 dB -12.38 dB 4:11 03-Hiver
DR12 -0.56 dB -17.78 dB 2:31 04-Joyau du desert
DR10 -0.56 dB -13.32 dB 5:08 05-Didem
DR11 -0.56 dB -14.79 dB 3:56 06-Bozo
DR8 -0.56 dB -11.29 dB 3:34 07-Le renégat
DR10 -0.56 dB -13.58 dB 3:32 08-Rêverie (Bonne nuit Loulou)
DR8 -0.56 dB -13.06 dB 4:39 09-Trauma
––––––––––––––––––––––––––––––––––––––––

Number of tracks: 9
Official DR value: DR9

Samplerate: 44100 Hz
Channels: 2
Bits per sample: 24
Bitrate: 1339 kbps
Codec: FLAC
================================================================================


Thanks to the Original customer!