Charles Owens Trio - 10 Years (2021) [Official Digital Download 24/96]

Posted By: El Misha
Charles Owens Trio - 10 Years (2021) [Official Digital Download 24/96]

Charles Owens Trio - 10 Years (2021)
FLAC (tracks) 24-bit/96.0 kHz | Time - 01:04:18 | 1.39 GB
Studio Master, Official Digital Download | Artwork: Front cover

The first thing you notice about Charles Owens is the tone. The American tenor saxophonist is a player of irresistible warmth. Like the early John Coltrane he is firm and direct, but generous and sincere with it. On listening to him you feel you know him. He invites the comparison on two tunes associated with the master, sashaying elegantly on Angelica and musing mysteriously on Central Park West. Both are utterly charming.

Like Sonny Rollins, Owens has a sound big enough to do without a piano’s chordal cushion. This group, which he here celebrates leading for a decade, has a lean two-man rhythm section. On electric bass guitar, Andrew Randazzo is frank and resonant, especially when he beetles away behind Owens’s spidery solo



Tracklist:

01. Charles Owens Trio - Cameron The Wise
02. Charles Owens Trio - Caught Up In The Rapture
03. Charles Owens Trio - Angelica
04. Charles Owens Trio - Central Park West
05. Charles Owens Trio - If 6 was 9
06. Charles Owens Trio - I Saw The Light
07. Charles Owens Trio - Tell Me A Bedtime Story
08. Charles Owens Trio - Continuum
09. Charles Owens Trio - Misty Mountain Hop
10. Charles Owens Trio - The Rainbow Connection

foobar2000 1.4 / Dynamic Range Meter 1.1.1
log date: 2021-06-11 07:45:33

––––––––––––––––––––––––––––––––––––––––
Analyzed: Charles Owens Trio / 10 Years
––––––––––––––––––––––––––––––––––––––––

DR Peak RMS Duration Track
––––––––––––––––––––––––––––––––––––––––
DR7 -0.10 dB -8.18 dB 5:05 01-Cameron The Wise
DR7 -0.10 dB -7.93 dB 7:50 02-Caught Up In The Rapture
DR7 -0.10 dB -8.38 dB 5:43 03-Angelica
DR7 -0.10 dB -8.73 dB 7:46 04-Central Park West
DR6 -0.10 dB -7.92 dB 5:28 05-If 6 was 9
DR7 -0.10 dB -8.11 dB 6:13 06-I Saw The Light
DR7 -0.10 dB -8.12 dB 8:32 07-Tell Me A Bedtime Story
DR7 -0.10 dB -8.10 dB 7:02 08-Continuum
DR6 -0.10 dB -7.07 dB 5:06 09-Misty Mountain Hop
DR8 -0.10 dB -10.14 dB 5:38 10-The Rainbow Connection
––––––––––––––––––––––––––––––––––––––––

Number of tracks: 10
Official DR value: DR7

Samplerate: 96000 Hz
Channels: 2
Bits per sample: 24
Bitrate: 2957 kbps
Codec: FLAC
================================================================================



Thanks to the Original customer!