Tags
Language
Tags

Craig Armstrong - Nocturnes: Music for 2 Pianos (2021) [Official Digital Download 24/48]

Posted By: delpotro
Craig Armstrong - Nocturnes: Music for 2 Pianos (2021) [Official Digital Download 24/48]

Craig Armstrong - Nocturnes: Music for 2 Pianos (2021)
FLAC (tracks) 24-bit/48 kHz | Front Cover | Time - 45:21 minutes | 392 MB
Modern Classical | Label: Modern Recordings, Official Digital Download

Nocturnes: Music For 2 Pianos was written during 2020 and 2021. There are 14 compositions, written mostly at night in lockdown. The decision to compose for two pianos gave me the ability to write more abstract compositions, blurring the melodies and harmonies to make a diffused sound. Other Nocturnes are more pure and focus on delicate melodic fragments, revealing their compositional process as they develop. Each short piece should stand on it’s own however the atmosphere and intention of each movement work together as a whole. Writing the work, which was composed and recorded at home was in a way therapeutic amidst the pandemic. I would like to think the beauty of the sound and reflectiveness of the music communicates and in turn perhaps might help the listener find some solace in these strange times. I wanted Nocturnes to be an acoustic album, playable by any two pianists who might want to perform them.” (Craig Armstrong)

Tracklist:
1. Nocturne 1 (03:35)
2. Nocturne 2 (03:39)
3. Nocturne 3 (03:05)
4. Nocturne 4 (03:23)
5. Nocturne 5 (05:04)
6. Nocturne 6 (03:12)
7. Nocturne 7 (04:16)
8. Nocturne 8 (03:16)
9. Nocturne 9 (01:26)
10. Nocturne 10 (01:06)
11. Nocturne 11 (04:22)
12. Nocturne 12 (03:04)
13. Nocturne 13 (03:15)
14. Nocturne 14 (02:32)

foobar2000 1.4.1 / Dynamic Range Meter 1.1.1
log date: 2021-09-03 09:53:19

––––––––––––––––––––––––––––––––––––––––
Analyzed: Craig Armstrong / Nocturnes: Music for 2 Pianos
––––––––––––––––––––––––––––––––––––––––

DR Peak RMS Duration Track
––––––––––––––––––––––––––––––––––––––––
DR12 -0.79 dB -15.22 dB 3:36 01-Nocturne 1
DR17 -0.13 dB -22.58 dB 3:40 02-Nocturne 2
DR12 -2.24 dB -19.04 dB 3:05 03-Nocturne 3
DR12 -0.12 dB -17.43 dB 3:24 04-Nocturne 4
DR11 -0.12 dB -15.18 dB 5:05 05-Nocturne 5
DR12 -0.13 dB -16.93 dB 3:13 06-Nocturne 6
DR15 -4.03 dB -23.95 dB 4:16 07-Nocturne 7
DR14 -1.61 dB -18.54 dB 3:16 08-Nocturne 8
DR9 -0.12 dB -11.43 dB 1:26 09-Nocturne 9
DR10 -6.11 dB -22.75 dB 1:07 10-Nocturne 10
DR12 -0.12 dB -16.81 dB 4:22 11-Nocturne 11
DR13 -0.54 dB -17.29 dB 3:04 12-Nocturne 12
DR12 -0.12 dB -14.42 dB 3:16 13-Nocturne 13
DR12 -0.12 dB -17.45 dB 2:32 14-Nocturne 14
––––––––––––––––––––––––––––––––––––––––

Number of tracks: 14
Official DR value: DR12

Samplerate: 48000 Hz
Channels: 2
Bits per sample: 24
Bitrate: 1225 kbps
Codec: FLAC
================================================================================


Thanks to the Original customer!