Tags
Language
Tags

Cult of Luna - The Raging River (2021) [Official Digital Download 24/96]

Posted By: delpotro
Cult of Luna - The Raging River (2021) [Official Digital Download 24/96]

Cult of Luna - The Raging River (2021)
FLAC (tracks) 24-bit/96 kHz | Front Cover | Time - 38:34 minutes | 824 MB
Post-Metal, Sludge | Label: Red Creek Records, Official Digital Download

Cult of Luna release a new EP, entitled The Raging River, via Red Creek – the band’s newly created record label. The EP features a guest appearance from Mark Lanegan.

Tracklist:
1. Three Bridges (08:45)
2. What I Leave Behind (05:58)
3. Cult of Luna, Mark Lanegan – Inside of A Dream (03:20)
4. I Remember (08:09)
5. Wave After Wave (12:22)

foobar2000 1.4.1 / Dynamic Range Meter 1.1.1
log date: 2021-02-05 09:24:37

––––––––––––––––––––––––––––––––––––––––
Analyzed: Cult of Luna / The Raging River
––––––––––––––––––––––––––––––––––––––––

DR Peak RMS Duration Track
––––––––––––––––––––––––––––––––––––––––
DR6 -0.49 dB -8.45 dB 8:45 01-Three Bridges
DR6 -0.50 dB -8.20 dB 5:58 02-What I Leave Behind
DR10 -0.50 dB -14.78 dB 3:20 03-Inside of a Dream (feat. Mark Lanegan)
DR6 -0.48 dB -8.26 dB 8:09 04-I Remember
DR6 -0.48 dB -8.02 dB 12:22 05-Wave After Wave
––––––––––––––––––––––––––––––––––––––––

Number of tracks: 5
Official DR value: DR7

Samplerate: 96000 Hz
Channels: 2
Bits per sample: 24
Bitrate: 3062 kbps
Codec: FLAC
================================================================================


Thanks to the Original customer!