Tags
Language
Tags

David Grisman - Dawg Jazz / Dawg Grass (Deluxe Edition) (1983/2021) [Official Digital Download 24/96]

Posted By: delpotro
David Grisman - Dawg Jazz / Dawg Grass (Deluxe Edition) (1983/2021) [Official Digital Download 24/96]

David Grisman - Dawg Jazz / Dawg Grass (Deluxe Edition) (1983/2021)
FLAC (tracks) 24-bit/96 kHz | Front Cover | Time - 63:29 minutes | 1,2 GB
Bluegrass, Folk, Jazz | Label: Acoustic Disc, Official Digital Download

Here’s the long-awaited digital release of David Grisman’s Dawg Jazz / Dawg Grass, the critically acclaimed 1983 Warner Brothers LP, out of print for over three decades.

This Deluxe Edition of classic studio performances features David with Tony Rice and Martin Taylor on guitars, Darol Anger on fiddle, Mike Marshall on mandolin, guitar and fiddle, dobro virtuoso Jerry Douglas with Rob Wasserman on bass. This unique project also features two very special guests — the master of bluegrass banjo, Earl Scruggs, pickin' Dawg’s only banjo composition, “Dawggy Mountain Breakdown” (the Car Talk theme) and jazz violin titan, Stephane Grappelli playing David's tribute to him, “Steppin’ with Stephane.” To top it all off, the title track, “Dawg Jazz” features the Tonight Show Big Band!!

This new Deluxe Edition also features seven previously unissued bonus tracks and is available in the sonically superior Hi-Definition format.

Tracklist:
01. Dawg Jazz
02. Steppin' with Stephane
03. Fumble Bee
04. In a Sentimental Mood
05. Dawg Jazz alternate mix
06. Steppin' with Stephane alternate
07. In a Sentimental Mood alternate
08. 14 Miles to Barstow
09. Swamp Dawg
10. Dawggy Mountain Breakdown
11. Wayfaring Stranger
12. Happy Birthday Bill Monroe
13. Dawg Grass
14. Wayfaring Stranger alernate 1
15. Opus 38
16. Swamp Dawg alternate
17. Wayfaring Stranger alternate 2

foobar2000 1.4.1 / Dynamic Range Meter 1.1.1
log date: 2021-10-11 12:56:09

––––––––––––––––––––––––––––––––––––––––
Analyzed: David Grisman / Dawg Grass Deluxe
––––––––––––––––––––––––––––––––––––––––

DR Peak RMS Duration Track
––––––––––––––––––––––––––––––––––––––––
DR14 -0.55 dB -16.49 dB 2:53 01-14 Miles to Barstow
DR15 -0.58 dB -19.16 dB 5:05 02-Swamp Dawg
DR14 -0.58 dB -16.37 dB 3:15 03-Dawggy Mountain Breakdown
DR16 -0.48 dB -22.55 dB 1:28 04-Wayfaring Stranger
DR14 -0.56 dB -18.01 dB 3:19 05-Happy Birthday Bill Monroe
DR15 -0.57 dB -18.53 dB 2:27 06-Dawg Grass
DR14 -0.58 dB -17.48 dB 1:29 07-Wayfaring Stranger alernate 1
DR11 -0.61 dB -13.10 dB 3:26 08-Opus 38
DR10 -0.54 dB -13.41 dB 4:52 09-Swamp Dawg alternate
DR16 -0.90 dB -19.81 dB 1:32 10-Wayfaring Stranger alternate 2
––––––––––––––––––––––––––––––––––––––––

Number of tracks: 10
Official DR value: DR14

Samplerate: 96000 Hz
Channels: 2
Bits per sample: 24
Bitrate: 2543 kbps
Codec: FLAC
================================================================================

––––––––––––––––––––––––––––––––––––––––
Analyzed: David Grisman / Dawg Jazz Deluxe
––––––––––––––––––––––––––––––––––––––––

DR Peak RMS Duration Track
––––––––––––––––––––––––––––––––––––––––
DR12 -0.72 dB -15.26 dB 6:20 06-Steppin' with Stephane alternate
DR13 -0.70 dB -16.14 dB 4:47 07-In a Sentimental Mood alternate
––––––––––––––––––––––––––––––––––––––––

Number of tracks: 2
Official DR value: DR12

Samplerate: 96000 Hz
Channels: 2
Bits per sample: 24
Bitrate: 2629 kbps
Codec: FLAC
================================================================================

––––––––––––––––––––––––––––––––––––––––
Analyzed: David Grisman / Dawg Jazz
––––––––––––––––––––––––––––––––––––––––

DR Peak RMS Duration Track
––––––––––––––––––––––––––––––––––––––––
DR14 -0.50 dB -16.83 dB 3:32 01-Dawg Jazz
DR14 -0.57 dB -18.40 dB 6:02 02-Steppin' with Stephane
DR13 -0.58 dB -17.80 dB 5:49 03-Fumble Bee
DR15 -0.66 dB -19.74 dB 3:36 04-In a Sentimental Mood
DR13 -0.54 dB -16.37 dB 3:38 05-Dawg Jazz alternate mix
––––––––––––––––––––––––––––––––––––––––

Number of tracks: 5
Official DR value: DR14

Samplerate: 96000 Hz
Channels: 2
Bits per sample: 24
Bitrate: 2942 kbps
Codec: FLAC
================================================================================


Thanks to the Original customer!