Tags
Language
Tags

Diane Coffee - With People (2022) [Official Digital Download 24/88]

Posted By: delpotro
Diane Coffee - With People (2022) [Official Digital Download 24/88]

Diane Coffee - With People (2022)
FLAC (tracks) 24-bit/88,2 kHz | Front Cover | Time - 38:09 minutes | 717 MB
Indie Pop | Label: Polyvinyl Records, Official Digital Download

iane Coffee will release their new album With People, will drop on April 29, 2022 via Polyvinyl Record Co., today, they have shared lead single “Forecast (feat. Deep Sea Diver)” alongside a video directed by Vince Patrick and Melinda Fleming. Its recounting of a turbulent relationship—Diane Coffee architect Shaun Fleming says: “For almost 15 years I had this ‘on again, off again’ relationship. It was always very hot, very intense, and always ended very badly. But no matter how awful the ending, how bad we knew we were for each other, we somehow always found ourselves being pulled back into it. I think deep down we loved the chaos, the crazy. We were the definition of a ‘fatal attraction.’” With People, produced by Jonathan Rado (Weyes Blood, The Killers).

Tracklist:
1. Diane Coffee – Corrina From Colina (04:17)
2. Diane Coffee – Bullied (02:59)
3. Diane Coffee & Deep Sea Diver – Forecast (03:46)
4. Diane Coffee – The Great Escape (02:50)
5. Diane Coffee – Our Love / The Run (05:06)
6. Diane Coffee – Sharks (03:50)
7. Diane Coffee – Hollywood (03:11)
8. Diane Coffee – Forever You & I (04:06)
9. Diane Coffee – What Good Is It Now (03:40)
10. Diane Coffee – Song For David (04:20)

foobar2000 1.4.1 / Dynamic Range Meter 1.1.1
log date: 2022-04-28 18:41:05

––––––––––––––––––––––––––––––––––––––––
Analyzed: Diane Coffee / With People
––––––––––––––––––––––––––––––––––––––––

DR Peak RMS Duration Track
––––––––––––––––––––––––––––––––––––––––
DR8 -0.30 dB -9.61 dB 4:17 01-Corrina From Colina
DR8 -0.30 dB -9.37 dB 2:59 02-Bullied
DR7 -0.30 dB -8.47 dB 3:47 03-Forecast (feat. Deep Sea Diver)
DR7 -0.30 dB -7.88 dB 2:50 04-The Great Escape
DR7 -0.30 dB -9.73 dB 5:06 05-Our Love / The Run
DR7 -0.30 dB -8.98 dB 3:51 06-Sharks
DR7 -0.30 dB -10.06 dB 3:12 07-Hollywood
DR7 -0.30 dB -9.92 dB 4:06 08-Forever You & I
DR8 -0.30 dB -11.38 dB 3:40 09-What Good Is It Now
DR8 -0.30 dB -10.54 dB 4:21 10-Song For David
––––––––––––––––––––––––––––––––––––––––

Number of tracks: 10
Official DR value: DR7

Samplerate: 88200 Hz
Channels: 2
Bits per sample: 24
Bitrate: 2570 kbps
Codec: FLAC
================================================================================


Thanks to the Original customer!