Tags
Language
Tags

Dot Allison - Heart-Shaped Scars (2021) [Official Digital Download]

Posted By: delpotro
Dot Allison - Heart-Shaped Scars (2021) [Official Digital Download]

Dot Allison - Heart-Shaped Scars (2021)
FLAC (tracks) 24-bit/44,1 kHz | Front Cover | Time - 50:22 minutes | 534 MB
Trip-Hop, Female Vocal | Label: SA Recordings, Official Digital Download

After the haunting lead single Long Exposure heralded the release of Heart-Shaped Scars- Allison’s first album in 12 years and her most personal to date - Dot Allison unveils another new track, ‘Can You Hear Nature Sing?’.

‘Can You Hear Nature Sing?’ originated from a poem written by Dot after her friend and poet Stuart McKenzie recommended some of his favourite poets. “On reading some of the work I wanted to use my immediate natural environment to write a poem” Dot explains. The result was ‘Emblems’ set in an autumn landscape. Later, when Dot and Zoe Bestel decided to write a duet for the new album Dot suggested ‘Emblems’ as “a starting point for the lyrics” As it transpired it proved fundamental in shaping ‘Can You Hear Nature Sing?’, providing much of the lyrical content.

Dot’s interests in music, literature, science and nature are integral to Heart-Shaped Scars overall aesthetic. It’s backdrop of exquisitely sparse and intoxicating dream-folk evokes Dot’s vision for “a pure kind of album that musically imbues a return to nature. I wanted it to be comforting like a familiar in-utero heartbeat.”

The album is produced by Allison alongside Fiona Cruickshank, with Hannah Peel adding string arrangements to four songs, courtesy of a quintet of Scottish folk musicians. Recorded at Castlesound Studios in Edinburgh - Dot’s home town - the sessions include new collaborations with singer songwriters Amy Bowman “The Haunted” and Zoe Bestel on new single “Can You Hear Nature Sing?”.

Field recordings of birdsong, rivers and the ambience of The Hebrides - where Dot has a cottage - also played their part. A location for gatherings amongst folk musician pals (Sarah Campbell and Amy Bowman included), “sharing ideas and passing instruments between us all, amongst friends and the island community,” says Allison. “It’s where I first sang ‘Long Exposure’ in public at a folk house concert. So, I can definitely hear some of the Hebrides in 'Heart-Shaped Scars’.

The influence of folk-minded artists in her record collection, such as Karen Dalton, Gene Clark, Neil Young, Joni Mitchell, Carole King, Nick Drake and Brian Wilson are evident but most poignantly is the late Andy Weatherall. Weatherall produced 'Morning Dove White', the album that launched Dot’s career with the band One Dove and who "championed, signed and mentored me… I hear his influence throughout all of my albums.”

Since 1999’s Afterglow, Allison has striven to “keep the listener on a journey – and myself too.” That journey has taken her from Afterglow’s broad church (trip-hop, Tim Buckley-esque ballads, chilled psychedelia) to the sultry synth-pop of We Are Science (2002), the baroque Exaltation of Larks (2007) and the roots drama of Room 7½ (2009). She’s worked with an extraordinary roll call of talent - Kevin Shields, Hal David, Paul Weller, Pete Doherty and Darren Emerson, Massive Attack, Scott Walker, Slam, Philip Shepard, The Babyshambles & Pete Doherty, underlining the huge respect her peers hold her in.

On Heart-Shaped Scars Allison mines a deeply emotive seam. “Love, loss and a universal longing for union that seems to go with the human condition. To me, music is a sort of tonic or an antidote to a kind of longing, for a while at least.”

"Despite Dot Allison’s groundbreaking and innovative work in dance music, this direction is a winning one. The lo-fi production with the brittle, fine production – it’s like a diaphanous dew-dropped web floating in the wind – is a fantastic fit for the singer’s confessional and frank lyrics as well as her angelic vocals. There’s heartache, pain, and longing in the songs, but there’s also an inspired inspiration from that pain resulting in some very touching and beautiful music."

Tracklist:
01. Long Exposure
02. The Haunted
03. Constellations
04. Can You Hear Nature Sing?
05. Ghost Orchid
06. Entanglement
07. Forever's Not Much Time
08. Cue the Tears
09. One Love
10. Love Died in Our Arms
11. Goodbye

foobar2000 1.4.1 / Dynamic Range Meter 1.1.1
log date: 2021-07-30 11:25:27

––––––––––––––––––––––––––––––––––––––––
Analyzed: Dot Allison / Heart-Shaped Scars
––––––––––––––––––––––––––––––––––––––––

DR Peak RMS Duration Track
––––––––––––––––––––––––––––––––––––––––
DR11 -0.42 dB -14.28 dB 5:50 01-Long Exposure
DR10 -0.47 dB -13.77 dB 6:21 02-The Haunted
DR8 -0.38 dB -11.65 dB 4:32 03-Constellations
DR10 -0.45 dB -12.88 dB 4:19 04-Can You Hear Nature Sing?
DR10 -0.46 dB -12.80 dB 4:31 05-Ghost Orchid
DR12 -3.83 dB -20.74 dB 0:42 06-Entanglement
DR10 -0.47 dB -14.84 dB 4:07 07-Forever's Not Much Time
DR7 -0.40 dB -9.70 dB 4:02 08-Cue the Tears
DR8 -0.98 dB -13.00 dB 5:48 09-One Love
DR9 0.00 dB -12.75 dB 4:47 10-Love Died in Our Arms
DR11 -0.46 dB -14.98 dB 5:24 11-Goodbye
––––––––––––––––––––––––––––––––––––––––

Number of tracks: 11
Official DR value: DR10

Samplerate: 44100 Hz
Channels: 2
Bits per sample: 24
Bitrate: 1448 kbps
Codec: FLAC
================================================================================


Thanks to the Original customer!