Estonian National Symphony Orchestra & Neeme Järvi - French Music for the Stage (2021) [Official Digital Download 24/96]

Posted By: delpotro
Estonian National Symphony Orchestra & Neeme Järvi - French Music for the Stage (2021) [Official Digital Download 24/96]

Estonian National Symphony Orchestra & Neeme Järvi - French Music for the Stage (2021)
FLAC (tracks) 24-bit/96 kHz | Front Cover & Digital Booklet | Time - 78:40 minutes | 758 MB
Classical | Label: Chandos Records, Official Digital Download

For their latest album, Neeme Järvi and his Estonian National Symphony Orchestra present a delightful programme of lesser-known stage music from the nineteenth and early twentieth centuries. The Overtures by Thomas, Auber and Boieldieu were all composed for works staged at the Opéra-Comique in Paris, and are wonderful examples of the period. The ‘Scène du bal’ and ‘Vieille Chanson’ from Le Roi s’amuse were written by Delibes in 1882 as incidental music for Victor Hugo’s play, first performed in 1832 but banned after the first performance because it was deemed to be an attack on the reigning monarch, Louis Philippe. The play, which went on to form the basis of the libretto for Verdi’s Rigoletto, was eventually revived with some success, with Delibes’s score an important factor. Massenet’s one-act ballet Espada dates from 1908, and is the most recent – and most substantial – work on the album. Set in Spain, the work clearly owes more than one idea to Bizet’s Carmen (‘The Card Game’ and ‘March of the Toreadors’ for example), but musically and orchestrally it is pure Massenet.

Tracklist:
1. Estonian National Symphony Orchestra & Neeme Järvi – Raymond, ou Le secret de la reine: Overture (08:07)
2. Estonian National Symphony Orchestra & Neeme Järvi – Fra Diavolo, S. 18: Overture (08:33)
3. Estonian National Symphony Orchestra & Neeme Järvi – Le calife de Bagdad: Overture (07:18)
4. Estonian National Symphony Orchestra & Neeme Järvi – La dame blanche: Overture (08:22)
5. Estonian National Symphony Orchestra & Neeme Järvi – Le roi s'amuse: I. Gaillarde. Moderato ben marcato (02:57)
6. Estonian National Symphony Orchestra & Neeme Järvi – Le roi s'amuse: II. Pavane. Belle qui tiens ma vie (02:32)
7. Estonian National Symphony Orchestra & Neeme Järvi – Le roi s'amuse: III. Scène du bouquet (02:10)
8. Estonian National Symphony Orchestra & Neeme Järvi – Le roi s'amuse: IV. Lesquercarde (01:32)
9. Estonian National Symphony Orchestra & Neeme Järvi – Le roi s'amuse: V. Madrigal (02:11)
10. Estonian National Symphony Orchestra & Neeme Järvi – Le roi s'amuse: VI. Passepied (01:46)
11. Estonian National Symphony Orchestra, Neeme Järvi, Theodor Sink & Ants Õnnis – Le roi s'amuse: Vieille chanson avec mandoline (02:49)
12. Estonian National Symphony Orchestra & Neeme Järvi – Le roi s'amuse: VII. Final. Reprise de la gaillarde (01:09)
13. Estonian National Symphony Orchestra & Neeme Järvi – Espada: No. 1, Allegro (00:38)
14. Estonian National Symphony Orchestra & Neeme Järvi – Espada: No. 2, Madrilena - Più mosso (02:16)
15. Estonian National Symphony Orchestra & Neeme Järvi – Espada: No. 3, Marche des Toréadors (01:58)
16. Estonian National Symphony Orchestra & Neeme Järvi – Espada: No. 4, Panaderos (03:05)
17. Estonian National Symphony Orchestra & Neeme Järvi – Espada: No. 5, Scène de l'Espada (04:18)
18. Estonian National Symphony Orchestra & Neeme Järvi – Espada: No. 6, Scène des Cartes (02:02)
19. Estonian National Symphony Orchestra & Neeme Järvi – Espada: No. 7, Boléro (01:54)
20. Estonian National Symphony Orchestra & Neeme Järvi – Espada: No. 8, Toréador et Andalouse (03:30)
21. Estonian National Symphony Orchestra & Neeme Järvi – Espada: No. 9, La danse de la Mercédès (04:24)
22. Estonian National Symphony Orchestra & Neeme Järvi – Espada: No. 10, Fandango (02:30)
23. Estonian National Symphony Orchestra & Neeme Järvi – Espada: No. 11, La danse de la Mercédès. Allegro con moto (02:29)

foobar2000 1.4.1 / Dynamic Range Meter 1.1.1
log date: 2021-02-23 15:39:59

––––––––––––––––––––––––––––––––––––––––
Analyzed: Estonian National Symphony Orchestra & Neeme Järvi / French Music for the Stage
––––––––––––––––––––––––––––––––––––––––

DR Peak RMS Duration Track
––––––––––––––––––––––––––––––––––––––––
DR15 -0.93 dB -23.31 dB 8:08 01-Thomas: Raymond, ou Le secret de la reine: Overture
DR13 -2.71 dB -21.89 dB 8:34 02-Auber: Fra Diavolo, S. 18: Overture
DR13 -3.72 dB -21.93 dB 7:18 03-Boieldieu: Le calife de Bagdad: Overture
DR13 -3.15 dB -22.21 dB 8:22 04-Boieldieu: La dame blanche: Overture
DR13 -3.22 dB -22.28 dB 2:57 05-Delibes: Le roi s'amuse: I. Gaillarde. Moderato ben marcato
DR10 -17.53 dB -31.61 dB 2:33 06-Delibes: Le roi s'amuse: II. Pavane. Belle qui tiens ma vie
DR14 -9.16 dB -28.93 dB 2:10 07-Delibes: Le roi s'amuse: III. Scène du bouquet
DR15 -3.77 dB -23.93 dB 1:32 08-Delibes: Le roi s'amuse: IV. Lesquercarde
DR12 -12.99 dB -31.93 dB 2:12 09-Delibes: Le roi s'amuse: V. Madrigal
DR12 -15.32 dB -32.28 dB 1:46 10-Delibes: Le roi s'amuse: VI. Passepied
DR12 -14.13 dB -33.46 dB 2:50 11-Delibes: Le roi s'amuse: Vieille chanson avec mandoline
DR12 -4.60 dB -23.28 dB 1:10 12-Delibes: Le roi s'amuse: VII. Final. Reprise de la gaillarde
DR12 -1.59 dB -17.54 dB 0:38 13-Massenet: Espada: No. 1, Allegro
DR13 -1.35 dB -17.89 dB 2:16 14-Massenet: Espada: No. 2, Madrilena - Più mosso
DR14 -1.92 dB -21.48 dB 1:59 15-Massenet: Espada: No. 3, Marche des Toréadors
DR14 -3.59 dB -23.74 dB 3:05 16-Massenet: Espada: No. 4, Panaderos
DR15 -0.95 dB -21.86 dB 4:19 17-Massenet: Espada: No. 5, Scène de l'Espada
DR13 -4.24 dB -24.86 dB 2:02 18-Massenet: Espada: No. 6, Scène des Cartes
DR14 -0.93 dB -21.62 dB 1:54 19-Massenet: Espada: No. 7, Boléro
DR15 -2.53 dB -25.17 dB 3:31 20-Massenet: Espada: No. 8, Toréador et Andalouse
DR15 -1.90 dB -23.71 dB 4:24 21-Massenet: Espada: No. 9, La danse de la Mercédès
DR14 -9.13 dB -29.49 dB 2:30 22-Massenet: Espada: No. 10, Fandango
DR13 -2.04 dB -20.85 dB 2:30 23-Massenet: Espada: No. 11, La danse de la Mercédès. Allegro con moto
––––––––––––––––––––––––––––––––––––––––

Number of tracks: 23
Official DR value: DR13

Samplerate: 48000 Hz
Channels: 2
Bits per sample: 24
Bitrate: 1398 kbps
Codec: FLAC
================================================================================


Thanks to the Original customer!