Tags
Language
Tags
October 2022
Su Mo Tu We Th Fr Sa
25 26 27 28 29 30 1
2 3 4 5 6 7 8
9 10 11 12 13 14 15
16 17 18 19 20 21 22
23 24 25 26 27 28 29
30 31 1 2 3 4 5

Fleetwood Mac - Fleetwood Mac (Studio Masters Edition) (1975) [Official Digital Download 24/192]

Posted By: El Misha
Fleetwood Mac - Fleetwood Mac (Studio Masters Edition) (1975) [Official Digital Download 24/192]

Fleetwood Mac - Fleetwood Mac (Studio Masters Edition) (1975)
FLAC (tracks) 24-bit/192 kHz | Time - 42:43 | 1.62 GB
Studio Master, Official Digital Download | Artwork: Front cover

This album was the first of the most successful incarnation of Fleetwood Mac, where Lindsey Buckingham and Stevie Nicks joined Mick Fleetwood, John McVie and Christine McVie to form the legendary band who continues to be highly successful to this day.



Tracklist:

1. Monday Morning
2. Warm Ways
3. Blue Letter
4. Rhiannon
5. Over My Head
6. Crystal
7. Say You Love Me
8. Landslide
9. World Turning
10. Sugar Daddy
11. I'm so Afraid

foobar2000 1.4 / Dynamic Range Meter 1.1.1
log date: 2021-02-18 17:41:45

––––––––––––––––––––––––––––––––––––––––
Analyzed: Fleetwood Mac / Fleetwood Mac (Studio Masters Edition)
––––––––––––––––––––––––––––––––––––––––

DR Peak RMS Duration Track
––––––––––––––––––––––––––––––––––––––––
DR13 -1.37 dB -16.12 dB 2:48 01-Monday Morning
DR13 -2.41 dB -18.15 dB 3:54 02-Warm Ways
DR12 0.00 dB -15.50 dB 2:41 03-Blue Letter
DR12 -1.22 dB -15.20 dB 4:10 04-Rhiannon
DR13 -2.23 dB -17.04 dB 3:38 05-Over My Head
DR14 -0.25 dB -19.91 dB 5:14 06-Crystal
DR12 -1.72 dB -16.04 dB 4:10 07-Say You Love Me
DR11 -5.95 dB -19.42 dB 3:19 08-Landslide
DR13 -2.48 dB -18.73 dB 4:25 09-World Turning
DR15 -1.41 dB -18.91 dB 4:09 10-Sugar Daddy
DR10 -2.24 dB -15.05 dB 4:21 11-I'm so Afraid
––––––––––––––––––––––––––––––––––––––––

Number of tracks: 11
Official DR value: DR13

Samplerate: 192000 Hz
Channels: 2
Bits per sample: 24
Bitrate: 5326 kbps
Codec: FLAC
================================================================================



Thanks to the Original customer!