Tags
Language
Tags

Four Tet - Parallel (2020) [Official Digital Download]

Posted By: delpotro
Four Tet - Parallel (2020) [Official Digital Download]

Four Tet - Parallel (2020)
FLAC (tracks) 24-bit/44,1 kHz | Front Cover | Time - 70:17 minutes | 646 MB
Electronic, Downtempo, Ambient | Label: Text Records, Official Digital Download

Four Tet has released a pair of new albums: Parallel and 871. The two albums follow Kieran Hebden’s most recent full-length Sixteen Oceans, which came out earlier this year. Hebden recently revealed that he and Madlib had finished work on the reclusive producer’s solo album Solo Ancestors, sharing the single “Road of the Lonely Ones.” He teamed with Thom Yorke and Burial for a pair of songs—“Her Revolution” and “His Rope”—earlier this month.

Tracklist:
1. Parallel 1 (26:46)
2. Parallel 2 (06:04)
3. Parallel 3 (00:48)
4. Parallel 4 (04:48)
5. Parallel 5 (00:53)
6. Parallel 6 (05:07)
7. Parallel 7 (05:43)
8. Parallel 8 (06:21)
9. Parallel 9 (07:15)
10. Parallel 10 (06:31)

foobar2000 1.4.1 / Dynamic Range Meter 1.1.1
log date: 2020-12-25 13:56:45

––––––––––––––––––––––––––––––––––––––––
Analyzed: Four Tet / Parallel
––––––––––––––––––––––––––––––––––––––––

DR Peak RMS Duration Track
––––––––––––––––––––––––––––––––––––––––
DR7 0.00 dB -11.60 dB 26:46 01-Parallel 1
DR8 -0.02 dB -9.76 dB 6:04 02-Parallel 2
DR9 -4.18 dB -14.89 dB 0:48 03-Parallel 3
DR9 0.00 dB -10.94 dB 4:48 04-Parallel 4
DR11 -7.48 dB -23.69 dB 0:53 05-Parallel 5
DR12 -0.02 dB -14.50 dB 5:07 06-Parallel 6
DR12 0.00 dB -13.79 dB 5:43 07-Parallel 7
DR9 -0.02 dB -11.76 dB 6:21 08-Parallel 8
DR9 0.00 dB -13.61 dB 7:15 09-Parallel 9
DR14 -2.46 dB -22.32 dB 6:31 10-Parallel 10
––––––––––––––––––––––––––––––––––––––––

Number of tracks: 10
Official DR value: DR10

Samplerate: 44100 Hz
Channels: 2
Bits per sample: 24
Bitrate: 1165 kbps
Codec: FLAC
================================================================================


Thanks to the Original customer!