Fragile - Golden Fragments (2020) [Official Digital Download]

Posted By: El Misha
Fragile - Golden Fragments (2020) [Official Digital Download]

Fragile - Golden Fragments (2020)
FLAC (tracks) 24-bit/44.10 kHz | Time - 50:28 | 577 MB
Studio Master, Official Digital Download | Artwork: Front cover

Golden Fragments is the first original album from Fragile. Fragile were the original European Yes Tribute band founded in the late 1990s. We now work as an original band paying tribute to Yes in our own unique way. This album features Claire Hamill (solo singer-songwriter, Ray Davies, Steve Howe, Jon Anderson, John Martyn, Alan White, Jon & Vangelis, Wishbone Ash) and also special guest Clive Bayley from the 1960s pre Yes band Mabel Greer's Toyshop.

Tracklist:

01. When Are Wars Won?/Surely All I Need
02. Blessed By The Sun/Hey You And I And
03. Five Senses
04. Heaven's Core
05. Open Space
06. Time To Dream/Now We Are Sunlight
07. Old Worlds And Kingdoms/Too Late In The Day

foobar2000 1.3.12 / Dynamic Range Meter 1.1.1
log date: 2020-05-27 07:24:03

––––––––––––––––––––––––––––––––––––––––
Analyzed: Fragile / Golden Fragments
––––––––––––––––––––––––––––––––––––––––

DR Peak RMS Duration Track
––––––––––––––––––––––––––––––––––––––––
DR7 0.00 dB -10.14 dB 12:17 01-When Are Wars Won?/Surely All I Need
DR8 0.00 dB -8.92 dB 6:41 02-Blessed By The Sun/Hey You And I And
DR7 0.00 dB -9.62 dB 4:35 03-Five Senses
DR7 0.00 dB -7.94 dB 6:29 04-Heaven's Core
DR9 -1.90 dB -13.67 dB 2:32 05-Open Space
DR7 0.00 dB -9.23 dB 6:30 06-Time To Dream/Now We Are Sunlight
DR7 0.00 dB -8.43 dB 11:25 07-Old Worlds And Kingdoms/Too Late In The Day
––––––––––––––––––––––––––––––––––––––––

Number of tracks: 7
Official DR value: DR7

Samplerate: 44100 Hz
Channels: 2
Bits per sample: 24
Bitrate: 1606 kbps
Codec: FLAC
================================================================================


Thanks to the Original customer!