Tags
Language
Tags

Frankie Newton - Easy Swing (2020) [Official Digital Download]

Posted By: delpotro
Frankie Newton - Easy Swing (2020) [Official Digital Download]

Frankie Newton - Easy Swing (2020)
FLAC (tracks) 24-bit/44,1 kHz | Front Cover | Time - 52:03 minutes | 509 MB
Jazz, Swing, Dixieland | Label: Nagel Heyer Records, Official Digital Download

Trumpeter Frankie Newton, whose mellow and thoughtful style sometimes seemed somewhat out of place in the swing era, had a relatively brief but artistically rewarding career. He had stints with Lloyd Scott (1927-1929), Cecil Scott (1929-1930), Chick Webb, Elmer Snowden, Charlie Johnson, and Sam Wooding, and appeared on Bessie Smith's final recording session in 1933. Newton worked with Charlie Barnet's short-lived integrated band in 1936 and with Teddy Hill, before briefly becoming closely associated with bassist John Kirby and his associates. The eventual John Kirby Sextet would have been the logical place for the trumpeter, but a falling out in 1937 ended up with the younger Charlie Shavers getting the spot in the commercially successful group. Newton instead played for Mezz Mezzrow and Lucky Millinder, led a few record dates (including participating in a set for Hugues Panassie), and worked at Cafe Society, accompanying Billie Holiday on several of her records (most notably "Strange Fruit"). As the 1940s progressed, Newton became less interested in music and gradually faded from the scene, painting more than playing, dying a forgotten and under-utilized talent.

Tracklist:
1. Who's Sorry Now (02:50)
2. Please Don't Talk About Me When I'm Gone (02:38)
3. I Found a New Baby (02:41)
4. There's No Two Ways About It (02:57)
5. Jitters (03:03)
6. Jam Fever (03:06)
7. St. James Infirmary (03:03)
8. Vamp (02:53)
9. Cause My Baby Says It's So (02:44)
10. Parallel Fifths (03:16)
11. Shame on You (02:38)
12. Emperor Jones (02:33)
13. So You Won't Sing (02:36)
14. Afternoon in Africa (02:55)
15. Dizzy Debutante (02:43)
16. How Long, How Long Blues (03:51)
17. Light Up (02:45)
18. Chained to a Dream (02:43)

foobar2000 1.4.3 / Dynamic Range Meter 1.1.1
log date: 2021-05-12 23:02:08

––––––––––––––––––––––––––––––––––––––––
Analyzed: Frankie Newton / Easy Swing
––––––––––––––––––––––––––––––––––––––––

DR Peak RMS Duration Track
––––––––––––––––––––––––––––––––––––––––
DR10 -1.00 dB -12.64 dB 2:50 01-Who's Sorry Now
DR9 -1.00 dB -12.31 dB 2:39 02-Please Don't Talk About Me When I'm Gone
DR10 -1.00 dB -12.60 dB 2:42 03-I Found a New Baby
DR10 -1.00 dB -12.31 dB 2:58 04-There's No Two Ways About It
DR11 -1.00 dB -13.24 dB 3:04 05-Jitters
DR9 -1.00 dB -12.13 dB 3:07 06-Jam Fever
DR13 -1.00 dB -16.12 dB 3:03 07-St. James Infirmary
DR10 -1.00 dB -12.37 dB 2:53 08-Vamp
DR8 -1.00 dB -11.39 dB 2:45 09-Cause My Baby Says It's So
DR7 -1.00 dB -10.31 dB 3:17 10-Parallel Fifths
DR8 -1.00 dB -11.28 dB 2:38 11-Shame on You
DR8 -1.00 dB -10.19 dB 2:33 12-Emperor Jones
DR9 -1.00 dB -12.28 dB 2:37 13-So You Won't Sing
DR9 -1.00 dB -11.47 dB 2:56 14-Afternoon in Africa
DR9 -1.00 dB -11.76 dB 2:43 15-Dizzy Debutante
DR13 -1.00 dB -16.64 dB 3:51 16-How Long, How Long Blues
DR9 -1.00 dB -11.71 dB 2:46 17-Light Up
DR9 -1.00 dB -12.49 dB 2:43 18-Chained to a Dream
––––––––––––––––––––––––––––––––––––––––

Number of tracks: 18
Official DR value: DR10

Samplerate: 44100 Hz
Channels: 2
Bits per sample: 24
Bitrate: 1272 kbps
Codec: FLAC
================================================================================


Thanks to the Original customer!