Tags
Language
Tags

Fulanno - Nadie está a salvo del mal (2020) [Official Digital Download]

Posted By: delpotro
Fulanno - Nadie está a salvo del mal (2020) [Official Digital Download]

Fulanno - Nadie está a salvo del mal (2020)
FLAC (tracks) 24-bit/44,1 kHz | Front Cover | Time - 42:56 minutes | 342 MB
Stoner Metal, Stoner Doom | Label: Forbidden Place Records, Official Digital Download

Argentina's FULANNO are back on Forbidden Place spewing evil, occult doom! Expanding on the sound of their first album "Velas Negras" with more fuzz, more, filth, more psychedelic madness!

Tracklist:
1. Fuego en la Cruz (07:36)
2. Los Elegidos (06:45)
3. Hombre Muerto (07:01)
4. Los Colmillos de Satan (07:28)
5. *Señores de la Necrópolis (02:21)
6. El Desierto de los Caídos (08:15)
7. *El Libro de los Muertos (03:31)

foobar2000 1.4.1 / Dynamic Range Meter 1.1.1
log date: 2020-11-30 16:10:26

––––––––––––––––––––––––––––––––––––––––
Analyzed: Fulanno / Nadie está a salvo del mal
––––––––––––––––––––––––––––––––––––––––

DR Peak RMS Duration Track
––––––––––––––––––––––––––––––––––––––––
DR8 0.00 dB -8.86 dB 7:36 01-Fuego en la Cruz
DR9 0.00 dB -10.25 dB 6:45 02-Los Elegidos
DR9 0.00 dB -9.93 dB 7:01 03-Hombre Muerto
DR7 0.00 dB -8.77 dB 7:28 04-Los Colmillos de Satan
DR8 0.00 dB -9.58 dB 2:21 05-*Señores de la Necropolis
DR8 0.00 dB -9.57 dB 8:15 06-El Desierto de los Caidos
DR6 0.00 dB -8.10 dB 3:31 07-*El Libro de los Muertos
––––––––––––––––––––––––––––––––––––––––

Number of tracks: 7
Official DR value: DR8

Samplerate: 44100 Hz
Channels: 2
Bits per sample: 24
Bitrate: 832 kbps
Codec: FLAC
================================================================================


Thanks to the Original customer!