Tags
Language
Tags

Gil Scott-Heron & Makaya McCraven - We're New Again: A Reimagining by Makaya McCraven (2020) [24bit/96kHz]

Posted By: delpotro
Gil Scott-Heron & Makaya McCraven - We're New Again: A Reimagining by Makaya McCraven (2020) [24bit/96kHz]

Gil Scott-Heron & Makaya McCraven - We're New Again: A Reimagining by Makaya McCraven (2020)
Vinyl Rip | FLAC (tracks) 24-bit/96 kHz | Front Cover | Time - 37:02 minutes | 661 MB
Jazz, Soul, Poetry, Spoken Word | Label: XL Recordings

To mark the tenth anniversary of the release of I’m New Here , the thirteenth - and last - studio album from the legendary US musician, poet and author Gil Scott-Heron, XL Recordings will release a unique reinterpretation of the album by acclaimed US jazz musician Makaya McCraven. The Chicago drummer and producer transforms Gil-Scott Heron's final album into a masterpiece of dirty blues, spiritual jazz, and deep yearning. (Pitchfork)

Tracklist:
A1 – Special Tribute (Broken Home Pt.1)
A2 – I'm New Here
A3 – Running
A4 – Blessed Parents
A5 – New York Is Killing Me
A6 – The Patch (Broken Home Pt.2)
A7 – People Of The Light
A8 – Being Blessed
A9 – Where Did The Night Go
B1 – Lily Scott (Broken Home Pt.3)
B2 – I'll Take Care Of You
B3 – I've Been Me
B4 – This Can't Be Real
B5 – Piano Player
B6 – The Crutch
B7 – Guided (Broken Home Pt.4)
B8 – Certain Bad Things
B9 – Me And The Devil

foobar2000 1.5.5 / Dynamic Range Meter 1.1.1
log date: 2020-10-10 17:20:46

––––––––––––––––––––––––––––––––––––––––
Analyzed: Gil Scott Heron / We're New Again : A Reimagining (By Makaya McCraven)
––––––––––––––––––––––––––––––––––––––––

DR Peak RMS Duration Track
––––––––––––––––––––––––––––––––––––––––
DR6 -11.75 dB -20.06 dB 0:42 01-Special Tribute (Broken Home Pt.1)
DR10 -6.95 dB -19.30 dB 4:10 02-I’m New Here
DR11 -6.75 dB -20.43 dB 2:08 03-Running
DR12 -6.04 dB -22.88 dB 1:08 04-Blessed Parents
DR12 -5.45 dB -18.80 dB 5:16 05-New York Is Killing Me
DR13 -8.55 dB -24.15 dB 1:14 06-The Patch (Broken Home Pt.2)
DR10 -6.39 dB -17.85 dB 2:53 07-People Of The Light
DR12 -17.56 dB -32.31 dB 0:16 08-Being Blessed
DR11 -6.11 dB -22.02 dB 2:35 09-Where Did The Night Go
DR18 -0.55 dB -30.07 dB 1:05 10-Lily Scott (Broken Home Pt.3)
DR9 -6.05 dB -17.77 dB 3:28 11-I’ll Take Care Of You
DR8 -6.59 dB -18.43 dB 0:37 12-I’ve Been Me
DR11 -6.45 dB -18.78 dB 1:28 13-This Can't Be Real
DR10 -6.51 dB -19.97 dB 0:36 14-Piano Player
DR11 -5.44 dB -18.61 dB 2:28 15-The Crutch
DR11 -6.46 dB -23.01 dB 1:59 16-Guided (Broken Home Pt.4)
DR11 -13.27 dB -27.35 dB 0:15 17-Certain Bad Things
DR11 -4.01 dB -18.89 dB 4:46 18-Me And The Devil
––––––––––––––––––––––––––––––––––––––––

Number of tracks: 18
Official DR value: DR11

Samplerate: 96000 Hz
Channels: 2
Bits per sample: 24
Bitrate: 2544 kbps
Codec: FLAC
================================================================================


Source:
Single Vinyl LP

Quality:
24bits 96KHz compression 8

for my vinyl rip:
Hardware:
Turntable Rega Planar 6 with Exakt 2
Preamp Pro-Ject Phono Box DS2 USB


Software:
VinylStudio V11.0.7

Thanks to the Original customer!